<?xml version="1.0" standalone="no"?>
<!DOCTYPE svg PUBLIC "-//W3C//DTD SVG 1.1//EN" "http://www.w3.org/Graphics/SVG/1.1/DTD/svg11.dtd" >
<svg xmlns="http://www.w3.org/2000/svg">
<metadata>Generated by IcoMoon</metadata>
<defs>
<font id="ym-iconfont" horiz-adv-x="1024">
<font-face units-per-em="1024" ascent="960" descent="-64" />
<missing-glyph horiz-adv-x="1024" />
<glyph unicode="&#x20;" horiz-adv-x="512" d="" />
<glyph unicode="&#xe000;" glyph-name="eye" d="M511.999 810.668q69.667 0 135.5-21.167t115.5-55 93.5-74.833 73.667-82 51.667-74.833 32.167-54.833l10-21.333q-2.333-5-6.333-13.5t-18.833-34.667-31.667-51.667-44.333-60-56.833-64.333-69.5-60.167-82.333-51.5-94.833-34.667-107.333-13.5q-69.667 0-135.5 21.167t-115.5 54.833-93.5 74.333-73.667 81.5-51.667 74.5-32.167 55l-10 21q2.333 5 6.333 13.5t18.833 34.833 31.667 51.833 44.333 60.333 56.833 64.667 69.5 60.333 82.333 51.833 94.833 34.833 107.333 13.5zM511.999 725.335q-46.667 0-91.667-12.333t-81.167-31.833-70.667-47.167-59.667-54.5-48.833-57.667-37.667-52.833-26.333-44q12.333-21.667 26.333-43.5t37.667-52.333 48.833-57 59.667-53.833 70.667-46.667 81.167-31.5 91.667-12.167 91.667 12.333 81.167 31.667 70.667 46.833 59.667 54.167 48.833 57.333 37.667 52.667 26.333 43.667q-12.333 21.667-26.333 43.667t-37.667 52.667-48.833 57.333-59.667 54.167-70.667 46.833-81.167 31.667-91.667 12.333zM511.999 597.334q70.667 0 120.667-50t50-120.667-50-120.667-120.667-50-120.667 50-50 120.667 50 120.667 120.667 50zM511.999 512q-35.333 0-60.333-25t-25-60.333 25-60.333 60.333-25 60.333 25 25 60.333-25 60.333-60.333 25z" />
<glyph unicode="&#xe007;" glyph-name="lock" d="M511.999 938.667q76 0 140.182-37.454t101.637-101.637 37.454-140.182v-186.182h93.091q57.818 0 98.727-40.909t40.909-98.727v-279.273q0-57.818-40.909-98.727t-98.727-40.909h-744.727q-57.818 0-98.727 40.909t-40.909 98.727v279.273q0 57.818 40.909 98.727t98.727 40.909h93.091v186.182q0 76 37.454 140.182t101.637 101.637 140.182 37.454zM884.362 380.122h-744.727q-19.273 0-32.909-13.636t-13.636-32.909v-279.273q0-19.273 13.636-32.909t32.909-13.636h744.727q19.273 0 32.909 13.636t13.636 32.909v279.273q0 19.273-13.636 32.909t-32.909 13.636zM511.999 845.577q-77.091 0-131.637-54.545t-54.545-131.637v-186.182h372.363v186.182q0 77.091-54.545 131.637t-131.637 54.545z" />
<glyph unicode="&#xe008;" glyph-name="unlock" d="M511.999 938.667q76 0 140.182-37.454t101.637-101.637 37.454-140.182v-46.546q0-19.273-13.636-32.909t-32.909-13.636-32.909 13.636-13.636 32.909v46.546q0 77.091-54.545 131.637t-131.637 54.545-131.637-54.545-54.545-131.637v-186.182h558.545q57.818 0 98.727-40.909t40.909-98.727v-279.273q0-57.818-40.909-98.727t-98.727-40.909h-744.727q-57.818 0-98.727 40.909t-40.909 98.727v279.273q0 57.818 40.909 98.727t98.727 40.909h93.091v186.182q0 76 37.454 140.182t101.637 101.637 140.182 37.454zM884.362 380.122h-744.727q-19.273 0-32.909-13.636t-13.636-32.909v-279.273q0-19.273 13.636-32.909t32.909-13.636h744.727q19.273 0 32.909 13.636t13.636 32.909v279.273q0 19.273-13.636 32.909t-32.909 13.636z" />
<glyph unicode="&#xe010;" glyph-name="image" d="M139.636 938.666h744.727q57.818 0 98.727-40.909t40.909-98.727v-744.727q0-57.818-40.909-98.727t-98.727-40.909h-744.727q-57.818 0-98.727 40.909t-40.909 98.727v744.727q0 57.818 40.909 98.727t98.727 40.909zM930.908 174.667l-232.727 232.727-399.636-399.636h585.818q19.273 0 32.909 13.636t13.636 32.909v120.363zM884.362 845.576h-744.727q-19.273 0-32.909-13.636t-13.636-32.909v-744.727q0-19.273 13.636-32.909t32.909-13.636h27.273l531.273 531.273 232.727-232.727v492.727q0 19.273-13.636 32.909t-32.909 13.636zM325.817 752.485q57.818 0 98.727-40.909t40.909-98.727-40.909-98.727-98.727-40.909-98.727 40.909-40.909 98.727 40.909 98.727 98.727 40.909zM325.817 659.394q-19.273 0-32.909-13.636t-13.636-32.909 13.636-32.909 32.909-13.636 32.909 13.636 13.636 32.909-13.636 32.909-32.909 13.636z" />
<glyph unicode="&#xe014;" glyph-name="clock" d="M512 938.666q104.364 0 199.089-40.546t163.273-109.091 109.091-163.273 40.546-199.089-40.546-199.089-109.091-163.273-163.273-109.091-199.089-40.546-199.089 40.546-163.273 109.091-109.091 163.273-40.546 199.089 40.546 199.089 109.091 163.273 163.273 109.091 199.089 40.546zM512 845.576q-85.091 0-162.727-33.273t-133.636-89.272-89.272-133.636-33.273-162.727 33.273-162.727 89.272-133.636 133.636-89.272 162.727-33.273 162.727 33.273 133.636 89.272 89.272 133.636 33.273 162.727-33.273 162.727-89.272 133.636-133.636 89.272-162.727 33.273zM512 752.486q19.273 0 32.909-13.636t13.636-32.909v-259.998l126.182-125.817q13.454-13.454 13.454-33.090t-13.454-33.090-33.090-13.454-33.090 13.454l-139.636 139.636q-13.454 13.454-13.454 33.090v279.271q0 19.273 13.636 32.909t32.909 13.636z" />
<glyph unicode="&#xe036;" glyph-name="search" d="M418.911 938.667q85.091 0 162.728-33.273t133.636-89.272 89.272-133.636 33.273-162.728q0-73.091-23.818-140t-67.819-121.454l264.363-264q13.454-13.454 13.454-33.091 0-20-13.273-33.273t-33.273-13.273q-19.636 0-33.091 13.454l-264 264.363q-54.545-44-121.454-67.819t-140-23.818q-85.091 0-162.728 33.273t-133.636 89.272-89.272 133.636-33.273 162.728 33.273 162.728 89.272 133.636 133.636 89.272 162.728 33.273zM418.911 845.576q-66.182 0-126.546-25.819t-104-69.455-69.455-104-25.819-126.546 25.819-126.546 69.455-104 104-69.455 126.546-25.819 126.546 25.819 104 69.455 69.455 104 25.819 126.546-25.819 126.546-69.455 104-104 69.455-126.546 25.819z" />
<glyph unicode="&#xe039;" glyph-name="reply" d="M356.667 783.667q17.333 0 30-12.5t12.667-30.167-12.667-30.333l-198.667-198.667h409.333q78 0 149.167-30.333t122.5-81.833 81.833-122.5 30.5-149.333v-42.667q0-17.667-12.5-30.167t-30.167-12.5q-17.333 0-30 12.667t-12.667 30v42.667q0 60.667-23.667 116t-63.667 95.333-95.333 63.667-116 23.667h-409.333l198.667-199q12.667-12.667 12.667-30 0-17.667-12.5-30.333t-30.167-12.667-30.333 12.667l-271.333 271.667q-12.333 12.333-12.333 30.333 0 17.667 12.333 30l271.333 271.667q12.667 12.667 30.333 12.667z" />
<glyph unicode="&#xe040;" glyph-name="circle-plus" d="M512 896q95.667 0 182.5-37.167t149.667-100 100-149.667 37.167-182.5-37.167-182.5-100-149.667-149.667-100-182.5-37.167-182.5 37.167-149.667 100-100 149.667-37.167 182.5 37.167 182.5 100 149.667 149.667 100 182.5 37.167zM512 810.667q-78 0-149.167-30.5t-122.5-81.833-81.833-122.5-30.5-149.167 30.5-149.167 81.833-122.5 122.5-81.833 149.167-30.5 149.167 30.5 122.5 81.833 81.833 122.5 30.5 149.167-30.5 149.167-81.833 122.5-122.5 81.833-149.167 30.5zM512 640q17.667 0 30.167-12.5t12.5-30.167v-128h128q17.667 0 30.167-12.5t12.5-30.167-12.5-30.167-30.167-12.5h-128v-128q0-17.667-12.5-30.167t-30.167-12.5-30.167 12.5-12.5 30.167v128h-128q-17.667 0-30.167 12.5t-12.5 30.167 12.5 30.167 30.167 12.5h128v128q0 17.667 12.5 30.167t30.167 12.5z" />
<glyph unicode="&#xe041;" glyph-name="circle-minus" d="M512 938.667q104.364 0 199.090-40.546t163.273-109.091 109.091-163.273 40.546-199.090-40.546-199.090-109.091-163.273-163.273-109.091-199.090-40.546-199.090 40.546-163.273 109.091-109.091 163.273-40.546 199.090 40.546 199.090 109.091 163.273 163.273 109.091 199.090 40.546zM512 845.577q-85.091 0-162.727-33.273t-133.636-89.272-89.272-133.636-33.273-162.727 33.273-162.727 89.272-133.636 133.636-89.272 162.727-33.273 162.727 33.273 133.636 89.272 89.272 133.636 33.273 162.727-33.273 162.727-89.272 133.636-133.636 89.272-162.727 33.273zM325.818 473.215h372.362q19.273 0 32.909-13.636t13.636-32.909-13.636-32.909-32.909-13.636h-372.362q-19.273 0-32.909 13.636t-13.636 32.909 13.636 32.909 32.909 13.636z" />
<glyph unicode="&#xe042;" glyph-name="circle-check" d="M512 938.666q104.364 0 199.089-40.546t163.273-109.091 109.091-163.273 40.546-199.089-40.546-199.089-109.091-163.273-163.273-109.091-199.089-40.546-199.089 40.546-163.273 109.091-109.091 163.273-40.546 199.089 40.546 199.089 109.091 163.273 163.273 109.091 199.089 40.546zM512 845.576q-85.091 0-162.727-33.273t-133.636-89.272-89.272-133.636-33.273-162.727 33.273-162.727 89.272-133.636 133.636-89.272 162.727-33.273 162.727 33.273 133.636 89.272 89.272 133.636 33.273 162.727-33.273 162.727-89.272 133.636-133.636 89.272-162.727 33.273zM668.727 566.668q19.273 0 32.909-13.636t13.636-32.909-13.819-33.090l-197.453-197.453q-13.454-13.454-32.727-13.454-19.636 0-33.090 13.454l-98.909 98.545q-13.454 13.454-13.454 33.090 0 19.273 13.636 32.909t32.909 13.636 33.090-13.819l65.818-65.818 164.364 164.727q13.819 13.819 33.090 13.819z" />
<glyph unicode="&#xe043;" glyph-name="circle-cross" d="M512 938.667q104.364 0 199.090-40.546t163.273-109.091 109.091-163.273 40.546-199.090-40.546-199.090-109.091-163.273-163.273-109.091-199.090-40.546-199.090 40.546-163.273 109.091-109.091 163.273-40.546 199.090 40.546 199.090 109.091 163.273 163.273 109.091 199.090 40.546zM512 845.577q-85.091 0-162.727-33.273t-133.636-89.272-89.272-133.636-33.273-162.727 33.273-162.727 89.272-133.636 133.636-89.272 162.727-33.273 162.727 33.273 133.636 89.272 89.272 133.636 33.273 162.727-33.273 162.727-89.272 133.636-133.636 89.272-162.727 33.273zM643.636 605.214q19.273 0 33.090-13.636t13.819-32.909-13.819-33.090l-98.909-98.909 98.909-98.545q13.819-13.819 13.819-32.727 0-19.273-13.819-32.909t-33.090-13.636-32.727 13.454l-98.909 98.545-98.545-98.545q-13.454-13.454-33.090-13.454-19.273 0-32.909 13.454t-13.636 32.727q0 19.636 13.454 33.090l98.909 98.545-98.909 98.909q-13.454 13.454-13.454 32.727t13.636 33.090 32.909 13.819 33.090-13.819l98.545-98.909 98.909 98.909q13.819 13.819 32.727 13.819z" />
<glyph unicode="&#xe066;" glyph-name="cloud-upload" d="M640.001 832.006q78 0 149.167-30.5t122.5-81.833 81.833-122.5 30.5-149.167q0-72.667-26.5-139.667t-72-117.333-108.667-83.5-134.167-41.167v86q71.667 10.333 130.167 51.833t92.167 105.667 33.667 138.167q0 60.667-23.667 116t-63.667 95.333-95.333 63.667-116 23.667q-55.333 0-106.5-19.833t-90-53.833-65-81.333-33.833-101h-88.667q-70.667 0-120.667-50t-50-120.667q0-38.667 15.167-71.667t39.833-54.167 54.833-33 60.833-11.833h170.667v-85.333h-170.667q-69.667 0-128.5 34.333t-93.167 93.167-34.333 128.5 34.333 128.5 93.167 93.167 128.5 34.333h22q26.333 74.333 79.333 132.167t126.833 90.833 155.833 33zM554.668 490.673q17.667 0 30.333-12.667l128-128q12.333-12.333 12.333-30 0-18.333-12.167-30.5t-30.5-12.167q-18 0-30.333 12.333l-55 55.333v-281q0-17.667-12.5-30.167t-30.167-12.5-30.167 12.5-12.5 30.167v281l-55-55.333q-12.333-12.333-30.333-12.333-17.667 0-30.167 12.5t-12.5 30.167q0 17 12.333 30l128 128q12.667 12.667 30.333 12.667z" />
<glyph unicode="&#xe067;" glyph-name="cloud-download" d="M640.001 831.999q78 0 149.167-30.5t122.5-81.833 81.833-122.5 30.5-149.167q0-85-35-160.667t-96.667-129.167-140-77.5l21 20.667q18 18.333 28 42.667 9.333 22.667 9.333 49.333 0 6.667-0.333 9.333 59.333 41.333 93.833 105.833t34.5 139.5q0 60.667-23.667 116t-63.667 95.333-95.333 63.667-116 23.667q-55.333 0-106.5-19.833t-90-53.833-65-81.333-33.833-101h-88.667q-70.667 0-120.667-50t-50-120.667q0-38.667 15.167-71.667t39.833-54.167 54.833-33 60.833-11.833h50q11.667-29.333 30-48l37.667-37.333h-117.667q-69.667 0-128.5 34.333t-93.167 93.167-34.333 128.5 34.333 128.5 93.167 93.167 128.5 34.333h22q26.333 74.333 79.333 132.167t126.833 90.833 155.833 33zM554.668 490.667q17.667 0 30.167-12.5t12.5-30.167v-280.998l55 55.333q12.333 12.333 30.333 12.333 18.333 0 30.5-12.167t12.167-30.5q0-18-12.333-30.333l-128-128q-12.333-12.333-30.333-12.333t-30.333 12.333l-128 128q-12.333 13-12.333 30.333 0 17.667 12.5 30.167t30.167 12.5q18 0 30.333-12.333l55-55.333v280.998q0 17.667 12.5 30.167t30.167 12.5z" />
<glyph unicode="&#xe074;" glyph-name="head" d="M512.001 917.34q69.667 0 128.5-34.333t93.167-93.167 34.333-128.5v-128q0-53.333-20.667-101t-57.667-83q97.333-15.333 173-45.167t118.5-70.5 42.833-85.667v-84q0-53-37.5-90.5t-90.5-37.5h-768q-53 0-90.5 37.5t-37.5 90.5v84.333q0 45 42.833 85.667t118.333 70.5 172.833 44.833q-36.667 35.667-57.333 83.167t-20.667 100.833v128q0 69.667 34.333 128.5t93.167 93.167 128.5 34.333zM512.001 277.34q-92.667 0-178.833-14.833t-150.167-41.5q-25.667-10.667-45.833-22.667t-30.667-21.667-15.833-16.833-5.333-11.5v-84.333q0-17.667 12.5-30.167t30.167-12.5h768q17.667 0 30.167 12.5t12.5 30.167v84q0 4.333-5.333 11.5t-15.833 16.833-30.667 21.667-45.833 23q-64 26.667-150.167 41.5t-178.833 14.833zM512.001 832.007q-70.667 0-120.667-50t-50-120.667v-128q0-70.667 50-120.667t120.667-50 120.667 50 50 120.667v128q0 70.667-50 120.667t-120.667 50z" />
<glyph unicode="&#xe078;" glyph-name="globe" d="M512 938.666q13.091 0 19.636-0.363 67.636-2.545 131.454-22.364t118-53.272 99.455-80.545 76.727-102.363 49.091-120.182 17.637-132.909-17.637-132.909-49.091-120.182-76.727-102.363-99.455-80.545-118-53.272-131.454-22.364q-6.545-0.363-19.636-0.363t-19.636 0.363q-67.636 2.545-131.454 22.364t-118 53.272-99.455 80.545-76.727 102.363-49.091 120.182-17.637 132.909 17.637 132.909 49.091 120.182 76.727 102.363 99.455 80.545 118 53.272 131.454 22.364q6.545 0.363 19.636 0.363zM281.091 380.121h-185.454q14.545-129.818 100-228t210.182-130.909q-47.272 71.637-82.364 162.363t-42.363 196.546zM649.818 380.121h-275.636q3.636-46.546 15.091-93.090t25.636-82.364 32.727-70.727 33.455-57.455 30.909-43.273q16 20.727 30.909 43.454t33.455 57.636 32.727 70.727 25.636 82.181 15.091 92.909zM405.819 832.121q-124.727-32.727-210.182-130.909t-100-228h185.454q12.728 189.818 124.727 358.909zM928.363 380.121h-185.091q-13.454-190.181-125.091-358.909 124.727 32.727 210.182 130.909t100 228zM512 820.121q-16-20.727-30.728-43.454t-33.455-57.636-32.909-70.727-25.636-82.181-15.091-92.909h275.636q-3.636 46.546-15.091 93.090t-25.636 82.364-32.727 70.727-33.455 57.455-30.909 43.273zM618.181 832.121q111.636-168.727 125.091-358.909h185.091q-14.545 129.818-100 228t-210.182 130.909z" />
<glyph unicode="&#xe108;" glyph-name="flag" d="M302.49 938.804q38.555 0 82.931-9.639t85.477-23.279l82.203-27.28t85.477-23.279 82.931-9.639q39.283 0 77.475 4.728t65.109 11.64 48.195 13.822 31.827 11.64l10.184 4.728v-651.811q-3.637-1.819-10.912-4.91t-30.736-11.275-48.922-14.186-64.199-11.094-78.021-5.093q-38.555 0-82.931 9.639t-85.477 23.279l-82.203 27.28t-85.477 23.279-82.931 9.639q-69.474 0-139.674-15.64v-310.265q0-19.278-13.64-32.918t-32.918-13.64-32.918 13.64-13.64 32.918v931.158q3.637 1.819 10.912 4.91t30.736 11.275 48.922 14.186 64.199 11.094 78.021 5.093zM302.49 845.688q-71.291 0-139.674-18.55v-460.85q69.837 13.822 139.674 13.822 51.65 0 103.301-11.821t117.486-33.645q8.366-2.91 31.463-10.73t33.827-11.275 31.463-9.457 34.736-8.73 32.19-5.093 34.555-2.365q71.291 0 139.674 18.55v460.85q-69.837-13.822-139.674-13.822-51.65 0-103.301 11.821t-117.486 33.645q-8.366 2.91-31.463 10.73t-33.827 11.275-31.463 9.457-34.736 8.73-32.19 5.093-34.555 2.365z" />
<glyph unicode="&#xe114;" glyph-name="plus" d="M512 938.666q21.2 0 36.2-15t15-36.2v-409.599h409.599q21.2 0 36.2-15t15-36.2-15-36.2-36.2-15h-409.599v-409.599q0-21.2-15-36.2t-36.2-15-36.2 15-15 36.2v409.599h-409.599q-21.2 0-36.2 15t-15 36.2 15 36.2 36.2 15h409.599v409.599q0 21.2 15 36.2t36.2 15z" />
<glyph unicode="&#xe115;" glyph-name="minus" d="M51.2 477.867h921.599q21.2 0 36.2-15t15-36.2-15-36.2-36.2-15h-921.599q-21.2 0-36.2 15t-15 36.2 15 36.2 36.2 15z" />
<glyph unicode="&#xe116;" glyph-name="check" d="M972.801 785.068q22 0 36.6-14.6t14.6-36.6q0-21.6-14.8-36.4l-614.401-614.401q-14.8-14.8-36.4-14.8t-36.4 14.8l-307.2 307.2q-14.8 14.8-14.8 36.4 0 22 14.6 36.6t36.6 14.6q21.6 0 36.4-14.8l270.801-271.2 578.001 578.401q14.8 14.8 36.4 14.8z" />
<glyph unicode="&#xe117;" glyph-name="cross" d="M960 938.668q27.5 0 45.75-18.251t18.251-45.75q0-27-18.5-45.5l-403.001-402.5 403.001-402.5q18.5-18.5 18.5-45.5 0-27.5-18.251-45.75t-45.75-18.251q-27 0-45.5 18.5l-402.5 403.001-402.5-403.001q-18.5-18.5-45.5-18.5-27.5 0-45.75 18.251t-18.251 45.75q0 27 18.5 45.5l403.001 402.5-403.001 402.5q-18.5 18.5-18.5 45.5 0 27.5 18.251 45.75t45.75 18.251q27 0 45.5-18.5l402.5-403.001 402.5 403.001q18.5 18.5 45.5 18.5z" />
<glyph unicode="&#xe122;" glyph-name="inbox" d="M512 938.666q19.273 0 32.909-13.636t13.636-32.909v-539.272l153.091 153.455q13.454 13.454 33.091 13.454 20 0 33.273-13.273t13.273-33.273q0-19.636-13.454-33.091l-232.727-232.727q-13.454-13.454-33.091-13.454t-33.091 13.454l-232.727 232.727q-13.454 14.182-13.454 33.091 0 19.273 13.636 32.909t32.909 13.636q19.636 0 33.091-13.454l153.091-153.455v539.272q0 19.273 13.636 32.909t32.909 13.636zM977.455 287.031q19.273 0 32.909-13.636t13.636-32.909v-186.182q0-58.181-40.364-98.545-41.091-41.091-98.182-41.091h-745.818q-57.091 0-98.909 40.727-40.727 41.818-40.727 98.909v186.182q0 19.273 13.636 32.909t32.909 13.636 32.909-13.636 13.636-32.909v-186.182q0-19.273 13.636-32.909t32.909-13.636h745.818q18.909 0 32.182 13.636t13.273 32.909v186.182q0 19.273 13.636 32.909t32.909 13.636z" />
<glyph unicode="&#xe123;" glyph-name="outbox" d="M512 938.666q19.636 0 33.091-13.454l232.727-232.727q13.454-13.454 13.454-33.091 0-20-13.273-33.273t-33.273-13.273q-19.636 0-33.091 13.454l-153.091 153.455v-539.272q0-19.273-13.636-32.909t-32.909-13.636-32.909 13.636-13.636 32.909v539.272l-153.091-153.455q-14.182-13.454-33.091-13.454-19.273 0-32.909 13.636t-13.636 32.909q0 18.909 13.454 33.091l232.727 232.727q13.454 13.454 33.091 13.454zM977.455 287.030q19.273 0 32.909-13.636t13.636-32.909v-186.182q0-58.181-40.364-98.545-41.091-41.091-98.182-41.091h-745.818q-57.091 0-98.909 40.727-40.727 41.818-40.727 98.909v186.182q0 19.273 13.636 32.909t32.909 13.636 32.909-13.636 13.636-32.909v-186.182q0-19.273 13.636-32.909t32.909-13.636h745.818q18.909 0 32.182 13.636t13.273 32.909v186.182q0 19.273 13.636 32.909t32.909 13.636z" />
<glyph unicode="&#xe900;" glyph-name="iconfont-a" d="M512.001 960.010c-282.303 0-512.001-229.697-512.001-512.001s229.696-511.999 512.001-511.999c282.302 0 511.999 229.696 511.999 511.999s-229.697 512.001-511.999 512.001zM512.001-9.773c-252.438 0-457.784 205.349-457.784 457.784 0 252.438 205.346 457.784 457.784 457.784s457.784-205.347 457.784-457.784c0-252.435-205.347-457.784-457.784-457.784zM622.819 372.024h-221.281l-51.615-140.055h-68.224l202.868 525.575h57.752l199.62-525.575h-68.224l-50.897 140.055zM421.396 425.816h181.928l-90.241 249.074-91.686-249.074z" />
<glyph unicode="&#xe901;" glyph-name="iconfont-a-block" d="M509.982 712.019l-131.18-316.022h265.341l-131.18 316.022zM511.999 959.999c-282.769 0-511.999-229.231-511.999-511.999s229.229-511.999 511.999-511.999 512.001 229.231 512.001 511.999-229.232 511.999-512.001 511.999zM742.527 166.433l-80.497 190.806h-298.135l-83.478-190.806h-47.702l253.414 596.269h47.702l259.376-596.269h-50.682z" />
<glyph unicode="&#xe902;" glyph-name="chevron-down" d="M37.713 719.037c37.714 38.579 90.221 41.607 136.326 0l338.047-324.119 338.047 324.119c46.106 41.607 98.698 38.579 136.153 0 37.714-38.493 35.293-103.541 0-139.699-35.119-36.158-406.123-389.428-406.123-389.428-18.77-19.29-43.423-28.978-68.076-28.978s-49.306 9.687-68.25 28.978c0 0-370.83 353.271-406.123 389.428-35.379 36.158-37.714 101.206 0 139.699z" />
<glyph unicode="&#xe903;" glyph-name="chevron-left" d="M770.319 935.215c38.59-37.724 41.618-90.246 0-136.362l-324.206-338.138 324.206-338.138c41.618-46.118 38.59-98.724 0-136.19-38.503-37.724-103.569-35.303-139.737 0-36.168 35.129-389.532 406.232-389.532 406.232-19.296 18.775-28.986 43.435-28.986 68.094s9.69 49.319 28.986 68.268c0 0 353.366 370.929 389.532 406.232 36.168 35.389 101.234 37.724 139.737 0z" />
<glyph unicode="&#xe904;" glyph-name="chevron-right" d="M393.419 935.21c36.168-35.303 389.532-406.231 389.532-406.231 19.296-18.949 28.986-43.609 28.986-68.268s-9.69-49.319-28.986-68.094c0 0-353.365-371.103-389.532-406.231-36.168-35.303-101.233-37.724-139.737 0-38.589 37.552-41.618 90.071 0 136.19l324.206 338.138-324.206 338.138c-41.618 46.118-38.589 98.724 0 136.362 38.503 37.724 103.569 35.389 139.737 0z" />
<glyph unicode="&#xe905;" glyph-name="chevron-up" d="M986.287 202.563c-37.714-38.579-90.221-41.607-136.326 0l-338.047 324.119-338.047-324.119c-46.106-41.607-98.698-38.579-136.153 0-37.714 38.493-35.293 103.541 0 139.699 35.119 36.158 406.123 389.428 406.123 389.428 18.77 19.29 43.423 28.978 68.076 28.978s49.306-9.687 68.25-28.978c0 0 370.83-353.271 406.123-389.428 35.379-36.158 37.714-101.206 0-139.699z" />
<glyph unicode="&#xe906;" glyph-name="iconfont-check-right" d="M1024 733.927c0 0-166.293-57.446-354.881-270.513-177.982-201.086-218.506-280.955-290.132-388.96 0 0-105.174 199.468-378.987 346.346l140.896 134.765c0 0 132.916-92.151 221.769-252.631 0 0 226.666 351.786 661.333 518.592v-87.598z" />
<glyph unicode="&#xe907;" glyph-name="chevron-with-circle-down" d="M645.6 530.24l-133.6-122.773-133.653 122.773c-10.56 10.453-27.627 10.453-38.294 0-10.506-10.453-10.506-27.467 0-37.867l152.747-149.706c10.614-10.453 27.733-10.453 38.24 0l152.747 149.706c10.614 10.4 10.56 27.414 0 37.867-10.506 10.453-27.573 10.453-38.186 0zM512 972.8c-282.773 0-512-229.227-512-512 0-282.827 229.227-512 512-512s512 229.173 512 512c0 282.773-229.227 512-512 512zM512 15.253c-246.133 0-445.547 199.467-445.547 445.547s199.414 445.547 445.547 445.547c246.027 0 445.547-199.467 445.547-445.547s-199.52-445.547-445.547-445.547z" />
<glyph unicode="&#xe908;" glyph-name="iconfont-color" d="M618.959 581.475c0-25.954 21.040-46.994 46.994-46.994s46.994 21.040 46.994 46.994c0 25.954-21.040 46.994-46.994 46.994s-46.994-21.040-46.994-46.994zM454.456 628.47c0-25.954 21.040-46.994 46.994-46.994s46.994 21.040 46.994 46.994c0 25.954-21.040 46.994-46.994 46.994s-46.994-21.040-46.994-46.994zM874.442 456.401c-0.54-5.898-0.564-11.467-1.481-17.529-27.915-184.405-205.81-329.78-397.311-329.78-104.186 0-173.244 39.569-179.588 90.816-10.316 83.932-73.404 106.982-124.064 100.591-75.966-9.54-119.294-15.437-119.294 62.902 0 217.348 197.375 382.273 410.305 406.005 138.656 15.437 287.345-26.786 363.076-126.532l34.47 34.447c-84.753 104.444-241.432 154.14-394.304 136.682-244.604-27.985-466.251-191.289-458.263-467.544 2.256-77.376 78.151-106.3 164.479-86.657 68.917 15.743 74.368-53.244 88.677-101.671 16.73-56.558 124.581-93.588 217.606-93.588 241.267 0 418.223 187.295 443.178 387.701 2.303 18.633 2.655 36.42 2.067 53.761l-49.555-49.602zM172.492 463.991c0-25.954 21.040-46.994 46.994-46.994s46.994 21.040 46.994 46.994c0 25.954-21.040 46.994-46.994 46.994s-46.994-21.040-46.994-46.994zM1010.254 716.114c-13.77 13.746-36.092-3.336-49.86-17.106l-380.112-377.668c-13.77-13.77-66.45-101.649-66.45-101.649s87.879 55.171 101.649 68.94l380.112 377.644c13.746 13.746 28.407 36.068 14.662 49.838zM289.978 581.475c0-25.954 21.040-46.994 46.994-46.994s46.994 21.040 46.994 46.994c0 25.954-21.040 46.994-46.994 46.994s-46.994-21.040-46.994-46.994z" />
<glyph unicode="&#xe909;" glyph-name="iconfont-community" d="M645.142 548.383c9.52 16.242 4.095 37.159-12.147 46.713-16.174 9.52-37.125 4.095-46.679-12.147-27.468-46.747-106.051-84.759-175.25-84.759-69.438 0-148.192 38.319-175.557 85.407-9.486 16.31-30.369 21.838-46.645 12.352-16.31-9.452-21.838-30.369-12.352-46.645 45.041-77.525 154.47-119.393 234.588-119.393 79.743 0.034 188.865 41.561 234.042 118.471zM716.56 260.598c56.438 0 102.366 45.928 102.366 102.366v443.585c0 56.438-45.928 102.366-102.366 102.366h-614.195c-56.438 0-102.366-45.928-102.366-102.366v-443.585c0-56.438 45.928-102.366 102.366-102.366h0.444l-0.444-170.507c-0.034-14.024 8.53-26.649 21.531-31.836 4.095-1.604 8.36-2.389 12.591-2.389 9.247 0 18.323 3.753 24.909 10.783l181.495 193.949h373.67zM171.154 290.216c0.171 1.535 0.887 2.9 0.887 4.504 0 18.869-15.287 34.122-34.122 34.122h-35.555c-18.801 0-34.122 15.287-34.122 34.122v443.585c0 18.801 15.321 34.122 34.122 34.122h614.195c18.835 0 34.122-15.321 34.122-34.122v-443.585c0-18.835-15.287-34.122-34.122-34.122h-388.274c-0.239 0-0.444-0.136-0.682-0.136-3.344-0.034-6.551-0.955-9.793-1.979-0.99-0.341-2.081-0.307-3.003-0.717-2.866-1.194-5.357-3.276-7.882-5.289-0.921-0.751-2.116-1.228-2.934-2.116-0.239-0.273-0.58-0.341-0.819-0.614l-132.325-141.436 0.307 113.66zM921.087 703.74c-18.869 0-33.815-15.287-33.815-34.122s15.56-34.122 34.429-34.122c18.767 0 34.020-15.321 34.020-34.122v-375.342c0-18.835-15.253-34.122-34.020-34.122h-34.531c-18.869 0-34.122-15.253-34.122-34.122 0-0.102 0.034-0.171 0.034-0.239 0-0.273-0.136-0.478-0.136-0.717l-0.171-52.821-77.32 78.208c-6.688 6.79-15.56 10.1-24.431 10.066-0.102 0-0.205 0.068-0.341 0.068h-170.61c-18.869 0-34.122-15.253-34.122-34.122s15.253-34.122 34.122-34.122h156.893l125.432-126.9c6.517-6.586 15.321-10.134 24.261-10.134 4.368 0 8.735 0.819 12.932 2.525 12.762 5.221 21.156 17.675 21.19 31.495l0.341 102.571h0.614c56.369 0 102.264 45.928 102.264 102.366v375.342c-0.034 56.472-45.928 102.366-102.912 102.366z" />
<glyph unicode="&#xe90a;" glyph-name="iconfont-copy" d="M694.907 82.188h-512.137c-60.505 0-109.744 49.238-109.744 109.744v658.462c0 60.505 49.238 109.744 109.744 109.744h512.137c60.505 0 109.744-49.238 109.744-109.744v-658.462c0-60.505-49.238-109.744-109.744-109.744zM182.77 886.975c-20.156 0-36.581-16.425-36.581-36.581v-658.462c0-20.193 16.425-36.581 36.581-36.581h512.137c20.193 0 36.581 16.388 36.581 36.581v658.462c0 20.156-16.388 36.581-36.581 36.581h-512.137zM841.232-64.137h-548.718c-20.193 0-36.581 16.352-36.581 36.581s16.388 36.581 36.581 36.581h548.718c20.193 0 36.581 16.388 36.581 36.581v695.043c0 20.193 16.352 36.581 36.581 36.581s36.581-16.388 36.581-36.581v-695.043c0-60.505-49.238-109.744-109.744-109.744zM548.582 667.487h-292.65c-20.193 0-36.581 16.388-36.581 36.581s16.388 36.581 36.581 36.581h292.65c20.229 0 36.581-16.388 36.581-36.581s-16.352-36.581-36.581-36.581zM621.745 484.581h-365.776c-20.193 0-36.581 16.388-36.581 36.581s16.388 36.581 36.581 36.581h365.776c20.229 0 36.581-16.388 36.581-36.581s-16.352-36.581-36.581-36.581zM621.745 301.675h-365.812c-20.193 0-36.581 16.352-36.581 36.581s16.388 36.581 36.581 36.581h365.812c20.229 0 36.581-16.352 36.581-36.581s-16.352-36.581-36.581-36.581z" />
<glyph unicode="&#xe90b;" glyph-name="chevron-with-circle-left" d="M581.44 632.747c-10.453 10.506-27.467 10.506-37.867 0l-149.706-152.8c-10.453-10.614-10.453-27.733 0-38.24l149.706-152.747c10.4-10.614 27.414-10.56 37.867 0 10.453 10.506 10.453 27.627 0 38.24l-122.773 133.6 122.773 133.653c10.453 10.56 10.453 27.627 0 38.294zM512 972.8c-282.773 0-512-229.227-512-512 0-282.827 229.227-512 512-512s512 229.173 512 512c0 282.773-229.227 512-512 512zM512 15.253c-246.133 0-445.547 199.467-445.547 445.547s199.414 445.547 445.547 445.547c246.027 0 445.547-199.467 445.547-445.547s-199.52-445.547-445.547-445.547z" />
<glyph unicode="&#xe90c;" glyph-name="iconfont-crown" d="M998.399 674.132c-8.533 0-8.533 0-17.067-8.533l-128-128-281.6 281.6c17.067 8.533 25.6 25.6 25.6 51.2 0 51.2-34.133 85.333-85.333 85.333s-85.333-34.133-85.333-85.333c0-25.6 8.533-42.667 25.6-51.2l-281.6-281.6-136.533 136.533c0 0-8.533 0-8.533 0-17.067 0-25.6-8.533-25.6-17.067v-640c0-42.667 34.133-76.8 68.267-76.8h878.933c42.667 0 68.267 34.133 68.267 68.267v648.533c8.533 8.533 0 17.067-17.067 17.067zM85.332 503.465l85.333-85.333 59.733 59.733 281.6 273.067 281.6-281.6 59.733-51.2 85.333 85.333v-264.533h-853.333v264.533zM938.666 25.598h-853.333v128h853.333v-128zM511.999 580.265c-68.267 0-128-59.733-128-128s59.733-128 128-128 128 59.733 128 128-59.733 128-128 128zM511.999 409.598c-25.6 0-42.667 17.067-42.667 42.667s17.067 42.667 42.667 42.667 42.667-17.067 42.667-42.667-17.067-42.667-42.667-42.667z" />
<glyph unicode="&#xe90d;" glyph-name="iconfont-cut" d="M367.601 410.030h123.612l-32.731 57.143-113.58 197.065c-34.404 15.234-60.45 45.439-69.961 81.776-17.685 66.245 22.218 135.798 88.798 153 65.874 17.945 135.167-21.957 153.037-88.203 16.535-63.126-18.391-129.668-79.324-150.734l88.167-153.558 55.954-96.487h378.637c21.547 0 38.79-17.426 38.79-39.049 0-21.328-17.242-38.788-38.79-38.788h-133.608v0.26h-131.451l-2.675-0.26h-65.985l33.253-57.368 66.468-115.884 67.136-115.361c10.516-19.098 4.384-42.913-14.379-53.689-18.353-10.848-42.726-4.236-53.277 14.341l-67.102 115.921-122.457 212.297h-85.38c2.75-9.994 4.384-20.026 4.384-30.541v-0.484c0-29.908-12.707-57.624-32.101-77.691-19.989-19.877-47.706-32.657-78.767-32.657h-233.365c-30.539 0-58.145 12.779-78.172 32.657-19.358 19.469-31.543 46.073-32.733 75.126 0 2.008 0 3.642 0 5.313 0.668 29.352 13.375 56.512 32.733 75.907 20.026 20.024 47.632 32.472 78.172 32.472h234.999c7.84 0 15.012-0.817 21.698-2.526v0zM23.37 31.727v0c-12.817 0-23.369-10.847-23.369-23.63 0-13.265 10.552-23.481 23.369-23.481h74.197c12.818 0 23.333 10.215 23.333 23.481 0 12.782-10.514 23.63-23.333 23.63h-74.197zM174.030 31.727v0c-12.708 0-23.22-10.847-23.22-23.63 0-13.265 10.513-23.481 23.22-23.481h73.826c13.337 0 23.221 10.215 23.221 23.481 0 12.782-9.883 23.63-23.221 23.63h-73.826zM324.874 31.727v0c-13.226 0-23.852-10.847-23.852-23.63 0-13.265 10.628-23.481 23.852-23.481h73.789c12.707 0 23.259 10.215 23.259 23.481 0 12.782-10.553 23.63-23.259 23.63h-73.789zM475.162 31.727v0c-12.817 0-23.369-10.847-23.369-23.63 0-13.265 10.552-23.481 23.369-23.481h73.677c12.708 0 23.259 10.215 23.259 23.481 0 12.782-10.552 23.63-23.259 23.63h-73.677zM926.323 31.727v0c-12.708 0-23.257-10.847-23.257-23.63 0-13.265 10.551-23.481 23.257-23.481h74.31c12.704 0 23.368 10.215 23.368 23.481 0 12.782-10.663 23.63-23.368 23.63h-74.31zM471.857 798.658v0c-11.704 41.539-54.468 66.544-96.526 55.435-41.613-11.035-66.506-54.282-55.47-96.155 11.182-41.576 54.431-66.545 96.007-55.174 41.461 11.034 66.987 54.28 55.989 95.894v0zM344.27 365.963v0h-233.363c-17.202 0-33.773-7.207-44.919-19.132-11.667-11.63-18.873-27.457-18.873-44.921v-0.484c0-17.201 7.206-33.251 18.873-44.362 11.147-11.926 27.717-19.467 44.919-19.467h231.173c1.671 0.333 2.823 0.333 4.496 0.333 16.534 0.263 32.065 7.508 43.248 19.134 11.033 10.516 18.204 26.64 18.724 43.174v0.632l-0.52 0.557 0.52 1.077v1.671c-0.52 16.607-7.692 32.139-18.724 42.655-11.667 11.665-27.198 18.874-44.437 19.132h-1.115z" />
<glyph unicode="&#xe90e;" glyph-name="iconfont-edit" d="M796.233 8.029v0c-38.938 0-77.875 15.577-109.020 46.722l-194.68 194.68c-109.020-31.147-218.040 0-303.7 77.875-93.444 93.444-116.812 225.833-62.299 350.431 7.784 15.577 15.577 23.361 31.147 23.361s23.361 0 31.147-7.784l140.174-140.174 85.659 85.659-140.174 132.381c-7.784 7.784-15.577 23.361-15.577 31.147 0 15.577 7.784 23.361 23.361 31.147 116.812 54.515 256.978 31.147 350.431-62.299 77.875-77.875 109.020-194.68 77.875-303.7l194.68-194.68c31.147-31.147 46.722-70.083 46.722-109.020s-15.577-77.875-46.722-109.020c-31.147-31.147-70.083-46.722-109.020-46.722zM500.317 327.306c7.784 0 23.361-7.784 31.147-7.784l210.257-210.257c15.577-15.577 31.147-23.361 54.515-23.361v0c23.361 0 38.938 7.784 54.515 23.361s23.361 31.147 23.361 54.515c0 23.361-7.784 38.938-23.361 54.515l-210.257 210.257c-15.577 7.784-15.577 31.147-7.784 38.938 31.147 85.659 7.784 179.106-54.515 249.194-54.515 54.515-132.381 77.875-202.473 62.299l101.236-101.236c23.361-23.361 23.361-62.299 0-85.659l-109.020-109.020c-23.361-23.361-62.299-23.361-85.659 0l-101.236 101.236c-15.577-70.083 7.784-147.958 62.299-202.473 62.299-62.299 155.742-85.659 241.403-54.515 7.784 0 15.577 0 15.577 0z" />
<glyph unicode="&#xe90f;" glyph-name="iconfont-filter2" d="M46.545 820.365h930.909c27.927 0 46.545 18.618 46.545 46.545s-18.618 46.545-46.545 46.545h-930.909c-27.927 0-46.545-18.618-46.545-46.545s18.618-46.545 46.545-46.545zM977.455 634.183h-930.909c-27.927 0-46.545-18.618-46.545-46.545s18.618-46.545 46.545-46.545h930.909c27.927 0 46.545 18.618 46.545 46.545s-18.618 46.545-46.545 46.545zM418.909 354.91h-372.364c-27.927 0-46.545-18.618-46.545-46.545s18.618-46.545 46.545-46.545h372.364c27.927 0 46.545 18.618 46.545 46.545s-18.618 46.545-46.545 46.545zM418.909 75.637h-372.364c-27.927 0-46.545-18.618-46.545-46.545s18.618-46.545 46.545-46.545h372.364c27.927 0 46.545 18.618 46.545 46.545s-18.618 46.545-46.545 46.545zM902.982 168.728c18.618 27.927 27.927 55.855 27.927 93.091 0 102.4-83.782 186.182-186.182 186.182s-186.182-83.782-186.182-186.182c0-102.4 83.782-186.182 186.182-186.182 37.236 0 65.164 9.309 93.091 27.927l102.4-102.4c18.618-18.618 46.545-18.618 65.164 0s18.618 46.545 0 65.164l-102.4 102.4zM651.636 261.819c0 55.855 37.236 93.091 93.091 93.091s93.091-37.236 93.091-93.091-37.236-93.091-93.091-93.091-93.091 37.236-93.091 93.091z" />
<glyph unicode="&#xe910;" glyph-name="iconfont-flag" d="M692.38 960.137c-63.274 0-125.981-12.746-186.627-25.090-60.27-12.248-117.169-23.839-174.16-23.839-44.275 0-83.643 7.251-120.294 22.154-3.406 1.374-6.967 1.906-10.531 2.063-0.435 0.030-0.779 0.249-1.218 0.249-0.374 0-0.657-0.187-1.030-0.219-3.626-0.126-7.156-0.783-10.532-2.124-0.595-0.25-1.123-0.595-1.718-0.876-1.407-0.623-2.845-1.187-4.156-2.091-1.311-0.876-2.408-2.032-3.562-3.093-0.469-0.438-0.999-0.783-1.437-1.251-2.435-2.532-4.341-5.436-5.811-8.595-0.314-0.687-0.531-1.374-0.813-2.091-1.282-3.469-2.186-7.094-2.186-10.874v-937.348c0-17.249 13.997-31.248 31.244-31.248s31.244 14.001 31.244 31.248v470.796c31.684-8.339 64.898-12.779 100.829-12.779 63.271 0 125.979 12.746 186.626 25.090 60.274 12.245 117.166 23.839 174.16 23.839 44.275 0 83.612-7.248 120.263-22.154 9.592-3.906 20.561-2.778 29.215 3.030 8.623 5.814 13.809 15.532 13.809 25.936v423.587c0 12.717-7.716 24.153-19.466 28.932-44.273 18.030-91.326 26.746-143.849 26.746zM793.209 524.112c-31.621 8.315-64.927 12.404-100.798 12.404-63.271 0-125.979-12.746-186.627-25.090-60.241-12.277-117.168-23.839-174.159-23.839-36.556 0-69.739 4.937-100.829 15.029v358.538c31.621-8.312 64.96-12.404 100.829-12.404 63.271 0 125.979 12.746 186.626 25.087 60.274 12.281 117.166 23.839 174.16 23.839 36.528 0 69.739-4.937 100.829-15.029v-358.536h-0.033z" />
<glyph unicode="&#xe911;" glyph-name="iconfont-flag-block" d="M68.243 960c37.742 0 68.242-28.672 68.242-64v-960h-136.485v960c0 35.328 30.574 64 68.242 64zM819.201 787.675c81.627 0 154.77 41.618 204.8 73.143v-595.675c-50.030-31.598-123.173-73.143-204.8-73.143s-154.77 22.747-204.8 54.126c-50.103 31.451-123.246 54.126-204.8 54.126-81.627 0-154.77-38.912-204.8-70.437v595.749c50.030 31.525 123.173 70.437 204.8 70.437s154.77-22.674 204.8-54.126c50.030-31.525 123.173-54.199 204.8-54.199z" />
<glyph unicode="&#xe912;" glyph-name="iconfont-form" d="M856.605 362.589h-689.193c-8.468 0-15.632-3.268-20.842-8.478v0c-5.211-5.874-8.466-13.048-8.466-20.863v0 0c0-8.478 3.255-15.654 8.466-21.526 5.211-5.211 13.026-8.478 20.842-8.478v0h689.193c8.457 0 15.632 3.267 20.843 8.478v0c5.849 5.874 9.118 13.049 9.118 20.863v0.661c0 7.818-3.268 14.991-9.118 20.201v0c-5.212 5.874-12.387 9.142-20.843 9.142v0zM856.605 454.545h-689.193c-8.468 0-15.632-3.266-20.842-8.477-5.211-5.874-8.466-13.049-8.466-20.887v0 0c0-8.477 3.255-15.654 8.466-20.862v0c5.211-5.874 13.026-9.118 20.842-9.118v0h689.193c8.457 0 15.632 3.245 20.843 9.118v0c5.849 5.21 9.118 12.387 9.118 20.862v0c0 7.838-3.268 15.014-9.118 20.887v0c-5.212 5.211-12.387 8.477-20.843 8.477v0zM627.301 546.478h-459.889c-7.816 0-15.632-3.269-20.842-8.479v0c-5.211-5.211-8.466-13.048-8.466-20.863v0c0-8.478 3.255-15.654 8.466-20.862v0c5.211-5.211 13.026-9.143 20.842-9.143v0h459.889c7.815 0.663 14.991 3.931 20.842 9.143v0c5.211 5.21 8.478 12.386 8.478 20.862v0c0 7.816-3.267 15.654-8.478 20.863-5.849 5.211-13.026 8.479-20.842 8.479v0zM859.85 763.641h105.535v-677.557h-906.1v677.557h105.522c6.514-26.096 20.854-48.264 41.044-64.557 20.843-17.619 47.544-27.398 76.214-27.398 29.308 0 56.023 9.781 76.865 27.398 20.191 16.293 34.519 38.461 41.032 64.557h224.094c6.514-26.096 21.484-48.264 41.020-64.557 20.844-17.619 47.558-27.398 76.876-27.398 29.321 0 56.013 9.781 76.856 27.398 19.54 16.292 34.531 38.461 41.043 64.557v0zM52.77 27.399h919.128c14.326 0 27.353 5.874 37.135 15.652 9.118 9.142 14.968 22.169 14.968 36.519v690.562c0 14.351-5.849 27.398-14.968 37.18-9.782 9.14-22.809 15.013-37.135 15.013v0h-138.1c-7.815 0-15.632-3.267-20.842-8.478v0c-5.21-5.212-8.478-12.408-8.478-20.886v0 0c0-16.955-7.153-32.589-18.236-44.332-11.724-11.083-26.714-18.258-44.29-18.258v0c-16.934 0-32.565 7.176-44.289 18.258v0c-11.087 11.745-18.26 27.377-18.26 44.332v0c0 8.478-3.245 15.675-8.457 20.886v0c-5.21 5.211-13.026 8.478-20.842 8.478v0h-275.544c-8.466 0-15.632-3.267-20.842-8.478v0 0c-5.863-5.212-9.12-12.408-9.12-20.886v0 0 0c0-16.955-6.513-32.589-18.248-44.332v0c-11.071-11.083-26.703-18.258-43.638-18.258h-0.651c-16.933 0-32.576 7.176-43.65 18.258v0c-11.722 11.746-18.236 27.378-18.236 44.332 0 8.478-3.257 15.675-9.118 20.886v0c-5.211 5.211-12.374 8.478-20.842 8.478v0h-137.448c-14.978 0-28.005-5.874-37.135-15.013-9.769-9.781-15.632-22.828-15.632-37.18v-690.562c0-14.35 5.862-27.378 15.632-36.519v-0.639c9.13-9.14 22.155-15.014 37.135-15.014v0zM261.224 772.119c5.861-5.232 13.026-8.478 20.842-8.478v0c8.468 0 15.631 3.245 20.842 8.478 5.861 5.211 9.118 13.025 9.118 20.842v46.32c0 7.816-3.257 14.991-9.118 20.843v0c-5.212 5.232-12.374 8.478-20.842 8.478v0c-7.816 0-14.981-3.245-20.842-8.478-5.212-5.851-8.479-13.026-8.479-20.843v0-46.32c0-7.816 3.267-15.631 8.479-20.842v0zM856.605 270.633h-689.193c-7.816 0-15.632-3.267-20.842-9.116-5.211-5.233-8.466-12.408-8.466-20.886v0c0-7.816 3.255-14.991 8.466-20.863v0c5.211-5.211 13.026-8.478 20.842-8.478v0h689.193c8.457 0 15.632 3.267 20.843 8.478v0c5.849 5.874 9.118 13.049 9.118 20.863v0c0 8.478-3.268 15.654-9.118 20.886v0c-5.212 5.849-12.387 9.116-20.843 9.116v0zM721.112 772.119c5.21-5.232 13.025-8.478 20.842-8.478v0c8.457 0 15.632 3.245 20.842 8.478v0c5.212 5.211 8.479 13.025 8.479 20.842v0 46.32c0 7.816-3.267 14.991-8.479 20.843v0c-5.21 5.232-12.383 8.478-20.842 8.478v0c-8.477 0-15.632-3.245-20.842-8.478-5.211-5.851-8.478-13.026-8.478-20.843v-46.32c-0.001-7.816 3.266-15.631 8.478-20.842v0z" />
<glyph unicode="&#xe913;" glyph-name="iconfont-formset" d="M866.557-64.137h-709.113c-65.16 0-118.186 53.026-118.186 118.186v787.903c0 65.16 53.026 118.186 118.186 118.186h709.113c65.16 0 118.186-53.026 118.186-118.186v-787.903c0-65.16-53.026-118.186-118.186-118.186zM157.443 881.347c-21.707 0-39.395-17.688-39.395-39.395v-787.903c0-21.746 17.688-39.395 39.395-39.395h709.113c21.746 0 39.395 17.649 39.395 39.395v787.903c0 21.707-17.649 39.395-39.395 39.395h-709.113zM670.802 407.541h-434.844c-21.746 0-39.395 17.649-39.395 39.395s17.649 39.395 39.395 39.395h434.844c21.786 0 39.395-17.649 39.395-39.395s-17.61-39.395-39.395-39.395zM786.387 172.825h-550.587c-21.746 0-39.395 17.61-39.395 39.395s17.649 39.395 39.395 39.395h550.587c21.786 0 39.395-17.61 39.395-39.395s-17.61-39.395-39.395-39.395zM196.484 702.414c0-32.636 26.456-59.093 59.093-59.093s59.093 26.456 59.093 59.093c0 32.636-26.456 59.093-59.093 59.093s-59.093-26.456-59.093-59.093zM451.804 702.414c0-32.636 26.456-59.093 59.093-59.093s59.093 26.456 59.093 59.093c0 0 0 0 0 0 0 32.636-26.456 59.093-59.093 59.093s-59.093-26.456-59.093-59.093zM708.030 702.414c0-32.636 26.456-59.093 59.093-59.093s59.093 26.456 59.093 59.093c0 32.636-26.456 59.093-59.093 59.093s-59.093-26.456-59.093-59.093z" />
<glyph unicode="&#xe914;" glyph-name="iconfont-help" d="M464 175.648c0-26.51 21.49-48 48-48s48 21.49 48 48c0 26.51-21.49 48-48 48s-48-21.49-48-48zM512 0c-247.040 0-448 200.96-448 448s200.96 448 448 448 448-200.96 448-448-200.96-448-448-448zM512 831.712c-211.584 0-383.712-172.128-383.712-383.712 0-211.552 172.128-383.712 383.712-383.712 211.552 0 383.712 172.16 383.712 383.712 0 211.584-172.16 383.712-383.712 383.712zM512 286.304c-17.664 0-32 14.336-32 32v54.112c0 52.352 40 92.352 75.328 127.648 25.888 25.92 52.672 52.672 52.672 74.016 0 53.344-43.072 96.736-96 96.736-53.824 0-96-41.536-96-94.56 0-17.664-14.336-32-32-32s-32 14.336-32 32c0 87.424 71.776 158.56 160 158.56s160-72.096 160-160.736c0-47.904-36.32-84.192-71.424-119.296-27.84-27.776-56.576-56.512-56.576-82.336v-54.112c0-17.664-14.336-32.032-32-32.032z" />
<glyph unicode="&#xe915;" glyph-name="iconfont-help-block" d="M512 960c-281.6 0-512-230.4-512-512s230.4-512 512-512 512 230.399 512 512-230.399 512-512 512zM563.2 89.598h-102.399v102.399h102.399v-102.399zM670.721 483.84l-46.079-46.079c-40.959-35.84-61.441-66.561-61.441-143.36h-102.399v25.6c0 56.319 20.479 107.52 61.44 143.36l61.44 66.561c20.48 15.359 30.72 40.959 30.72 71.68 0 56.319-46.079 102.399-102.399 102.399s-102.399-46.079-102.399-102.399h-102.4c0 112.64 92.16 204.8 204.8 204.8s204.8-92.16 204.8-204.8c0-46.082-20.48-87.042-46.079-117.763z" />
<glyph unicode="&#xe916;" glyph-name="iconfont-helpempty" d="M532.002-64.137c-43.725 0-79.077 34.887-79.077 78.611 0 43.26 35.352 78.146 79.077 78.146s79.077-34.887 79.077-78.146c0-43.725-35.352-78.611-79.077-78.611zM689.224 472.188c-106.056-104.66-103.265-127.453-108.381-247.928h-88.38c5.117 132.569 34.887 203.273 140.012 300.026 51.167 47.911 90.24 105.59 90.24 177.224 0 109.777-90.24 185.597-198.156 185.597-150.711 0-225.601-76.286-222.81-215.832h-87.449c1.395 195.366 113.498 288.862 314.446 288.862 153.502 0 280.954-94.892 280.954-253.975 0-101.869-49.772-168.387-120.475-233.974z" />
<glyph unicode="&#xe917;" glyph-name="iconfont-high" d="M997.816 693.791l-121.080 176.357c-23.225 34.131-74.51 59.862-119.281 59.862h-491.141c-44.755 0-96.011-25.775-119.104-59.759l-121.391-175.548c-25.819-38.020-24.448-96.587 3.125-133.339l422.569-563.295c15.297-20.395 37.359-32.081 60.511-32.081 23.064 0 45.022 11.627 60.215 31.89l422.598 563.352c27.854 37.152 29.164 94.097 2.978 132.561zM757.454 869.648c1.403 0 2.833-0.057 4.277-0.154l-11.985-10.944c-6.161-5.614-6.586-15.164-0.974-21.309 2.976-3.271 7.060-4.921 11.157-4.921 3.625 0 7.266 1.296 10.168 3.95l25.972 23.715c13.079-6.183 24.591-14.736 30.826-23.892l121.094-176.358c3.203-4.708 5.455-10.373 6.776-16.446h-396.083l125.826 114.846c6.145 5.614 6.586 15.164 0.971 21.309-5.6 6.161-15.165 6.615-21.326 0.971l-148.283-135.343c-0.608-0.556-1.143-1.159-1.64-1.784h-14.432c-0.497 0.625-1.033 1.228-1.642 1.784l-244.661 223.34c4.397 0.798 8.713 1.236 12.82 1.236h491.141zM196.992 836.121c5.19 7.635 14.086 14.863 24.5 20.643l233.857-213.477h-384.875c-0.574 0-1.14-0.039-1.699-0.102 1.259 6.495 3.524 12.524 6.827 17.387l121.391 175.548zM77.224 597.588c-3.268 4.36-5.703 9.721-7.309 15.546 0.188-0.007 0.371-0.029 0.56-0.029h192.887l14.316-35.84c2.329-5.954 8.016-9.593 14.058-9.593 1.828 0 3.684 0.323 5.498 1.030 7.75 3.052 11.583 11.805 8.547 19.556l-9.925 24.847h429.636l-213.688-551.284-165.701 423.382c-3.037 7.766-11.806 11.612-19.556 8.563-7.766-3.052-11.583-11.805-8.549-19.556l161.663-413.057-402.436 536.435zM543.566 60.245l214.298 552.86h196.077c-1.606-5.825-4.071-11.213-7.397-15.65l-402.978-537.209zM713.125 789.58c3.641 0 7.281 1.311 10.17 3.951l10.507 9.593c6.145 5.628 6.586 15.165 0.957 21.326-5.614 6.129-15.149 6.559-21.309 0.958l-10.507-9.594c-6.145-5.615-6.586-15.165-0.957-21.326 2.976-3.256 7.045-4.907 11.141-4.907zM325.749 537.224l-5.291 13.499c-3.036 7.737-11.773 11.583-19.556 8.531-7.75-3.036-11.582-11.788-8.547-19.556l5.291-13.499c2.344-5.939 8.032-9.58 14.060-9.58 1.828 0 3.699 0.34 5.496 1.048 7.766 3.038 11.599 11.79 8.547 19.557z" />
<glyph unicode="&#xe918;" glyph-name="iconfont-high-block" d="M997.813 693.792l-121.079 176.357c-23.226 34.131-74.51 59.862-119.281 59.862h-491.141c-44.755 0-96.011-25.775-119.103-59.759l-121.39-175.548c-25.819-38.020-24.448-96.588 3.125-133.34l422.568-563.295c15.297-20.395 37.358-32.082 60.511-32.082 23.064 0 45.021 11.627 60.215 31.889l422.598 563.352c27.853 37.152 29.164 94.097 2.977 132.561zM749.743 858.551l44.961 41.060c6.175 5.644 15.71 5.202 21.326-0.973 5.614-6.145 5.187-15.695-0.973-21.31l-44.961-41.057c-2.902-2.653-6.543-3.95-10.169-3.95-4.096 0-8.18 1.648-11.157 4.922-5.613 6.147-5.186 15.696 0.973 21.31zM702.938 815.814l10.507 9.594c6.16 5.6 15.696 5.171 21.31-0.959 5.631-6.16 5.188-15.696-0.957-21.326l-10.507-9.593c-2.888-2.64-6.528-3.952-10.17-3.952-4.095 0-8.164 1.65-11.141 4.907-5.629 6.16-5.188 15.71 0.957 21.326zM297.644 526.203l-5.292 13.499c-3.035 7.767 0.797 16.52 8.548 19.556 7.782 3.052 16.52-0.796 19.556-8.532l5.292-13.499c3.052-7.767-0.78-16.519-8.548-19.556-1.798-0.708-3.668-1.047-5.495-1.047-6.029-0.001-11.718 3.64-14.060 9.579zM991.002 613.105h-233.141l-231.914-598.307c-0.067-0.174-0.148-0.34-0.222-0.509-0.020-0.051-0.044-0.102-0.066-0.153-0.178-0.401-0.369-0.789-0.577-1.166-0.015-0.027-0.028-0.056-0.044-0.083-0.46-0.822-0.986-1.586-1.573-2.291-0.065-0.079-0.134-0.154-0.2-0.231-0.222-0.255-0.45-0.502-0.685-0.74-0.107-0.108-0.214-0.214-0.323-0.318-0.222-0.209-0.451-0.411-0.683-0.606-0.116-0.098-0.227-0.199-0.346-0.294-0.316-0.25-0.646-0.486-0.98-0.708-0.174-0.116-0.357-0.224-0.538-0.335-0.195-0.117-0.39-0.235-0.591-0.343-0.2-0.109-0.402-0.216-0.608-0.318-0.203-0.1-0.411-0.19-0.618-0.28-0.173-0.075-0.339-0.164-0.516-0.233-0.228-0.089-0.459-0.155-0.689-0.232-0.153-0.051-0.303-0.107-0.457-0.154-0.225-0.067-0.451-0.124-0.676-0.181-0.195-0.049-0.39-0.097-0.589-0.138-0.205-0.043-0.41-0.083-0.615-0.116-0.244-0.041-0.487-0.071-0.732-0.1-0.164-0.018-0.328-0.043-0.493-0.056-0.413-0.035-0.829-0.056-1.248-0.056-0.418 0-0.833 0.020-1.248 0.056-0.153 0.013-0.304 0.035-0.458 0.051-0.258 0.031-0.518 0.063-0.774 0.106-0.191 0.033-0.38 0.068-0.572 0.108-0.215 0.044-0.427 0.096-0.641 0.148-0.208 0.052-0.417 0.105-0.623 0.166s-0.406 0.133-0.609 0.203c-0.175 0.060-0.354 0.109-0.528 0.176-0.131 0.051-0.25 0.115-0.379 0.17-0.265 0.112-0.529 0.225-0.788 0.352-0.197 0.097-0.389 0.198-0.581 0.303-0.2 0.109-0.4 0.223-0.595 0.342-0.186 0.112-0.371 0.222-0.551 0.342-0.295 0.195-0.583 0.403-0.863 0.618-0.163 0.124-0.316 0.255-0.474 0.387-0.222 0.186-0.442 0.375-0.653 0.574-0.12 0.113-0.237 0.229-0.353 0.346-0.221 0.221-0.434 0.45-0.642 0.684-0.082 0.094-0.166 0.184-0.245 0.279-0.578 0.69-1.1 1.438-1.553 2.242-0.031 0.054-0.057 0.108-0.087 0.162-0.188 0.342-0.362 0.69-0.525 1.050-0.043 0.094-0.083 0.189-0.123 0.285-0.064 0.149-0.135 0.295-0.195 0.446l-179.823 459.453c-3.035 7.752 0.781 16.504 8.549 19.556 7.751 3.050 16.519-0.796 19.556-8.562l165.701-423.382 213.688 551.283h-429.634l9.925-24.848c3.036-7.752-0.797-16.504-8.548-19.556-1.812-0.708-3.67-1.030-5.498-1.030-6.043 0-11.73 3.639-14.058 9.593l-14.316 35.84h-192.887c-8.327 0-15.091 6.75-15.091 15.091s6.764 15.091 15.091 15.091h384.875l-256.382 234.038c-6.147 5.615-6.588 15.165-0.973 21.31 5.615 6.175 15.165 6.618 21.326 0.973l278.838-254.539c0.609-0.556 1.145-1.159 1.642-1.784h14.432c0.496 0.625 1.031 1.227 1.639 1.784l148.283 135.343c6.16 5.644 15.724 5.188 21.326-0.971 5.615-6.147 5.174-15.696-0.971-21.31l-125.826-114.846h432.323c8.34 0 15.091-6.75 15.091-15.091-0.001-8.34-6.75-15.091-15.093-15.091z" />
<glyph unicode="&#xe919;" glyph-name="iconfont-home" d="M1011.119 472.65l-434.697 439.173c-0.043 0.043-0.084 0.085-0.127 0.128-17.175 17.174-40.009 26.632-64.296 26.632s-47.122-9.459-64.296-26.633c-0.042-0.043-0.084-0.084-0.126-0.127l-434.697-439.173c-9.946-10.049-12.88-25.094-7.435-38.144s18.2-21.548 32.34-21.548h123.798v-420.5c0-19.353 15.689-35.042 35.042-35.042h630.75c19.353 0 35.042 15.689 35.042 35.042v420.5h123.799c14.14 0 26.896 8.499 32.34 21.55s2.512 28.094-7.435 38.143zM441.915 27.499v280.333h140.167v-280.333h-140.167zM827.373 483.041c-19.353 0-35.042-15.689-35.042-35.042v-420.5h-140.167v315.375c0 19.353-15.689 35.042-35.042 35.042h-210.25c-19.353 0-35.042-15.689-35.042-35.042v-315.375h-140.167v420.5c0 19.353-15.689 35.042-35.042 35.042h-74.851l375.547 379.414c3.93 3.898 9.139 6.045 14.678 6.045 5.544 0 10.759-2.15 14.69-6.056l375.537-379.403h-74.851z" />
<glyph unicode="&#xe91a;" glyph-name="iconfont-icon-gj" d="M993.742 633.208c-22.354 25.736-161.031 190.263-213.947 247.626-16.348 17.753-28.512 30.033-53.526 31.019-24.973 0.917-427.928 0-427.928 0-13.8 0-31.517-3.27-54.287-30.033-53.067-62.494-172.813-200.338-213.187-248.614-27.37-31.853-30.866-77.131 0-123.776 65.614-76.788 246.41-285.187 427.967-495.254 25.775-29.882 41.969-30.945 53.45-30.945 11.254 0 27.182 0.533 53.484 30.945 179.815 208.092 352.474 406.982 427.935 495.255 25.506 30.942 30.297 87.128 0.038 123.776zM940.293 540.373c-60.291-70.626-241.468-272.941-385.012-439.6-20.983-24.329-33.717-24.709-42.617-24.709-9.123 0-22.047 0.911-42.65 24.709-144.91 168.178-333.238 378.168-385.62 439.6-14.597 15.055-14.293 40.301 0 61.929 32.162 38.66 144.609 166.924 187.187 216.642 31.55 36.952 59.223 30.983 70.25 30.983h341.484c41.016 0 50.712-9.088 69.719-30.983 40.905-47.364 169.468-196.077 187.26-216.642 15.74-22.619 11.024-43.982 0-61.929zM796.372 602.302h-101.312c-5.589 0-13.646-0.876-20.337-11.366l-162.058-229.609c-0.15-0.154-0.225-0.534-0.38-0.763v0.838l-162.323 229.496c-6.691 10.526-14.672 11.328-20.296 11.328h-101.425c-5.55 0-10.187-5.060-10.187-11.328v-56.53c0-6.233 4.562-11.328 10.187-11.328h9.806c14.598 0 13.495-2.777 20.605-11.328 50.712-69.339 253.595-342.665 253.595-342.665v1.137c0.115-0.378 0.194-0.834 0.345-1.137 0 0 202.617 273.397 253.405 342.665 7.034 8.476 6.046 11.328 20.567 11.328h9.695c5.59 0 10.072 5.131 10.072 11.328v56.53c0.154 6.347-4.368 11.403-9.956 11.403z" />
<glyph unicode="&#xe91b;" glyph-name="iconfont-info" d="M512 960c-282.4 0-512-229.6-512-512s229.6-512 512-512c282.4 0 512 229.6 512 512s-229.6 512-512 512zM592 260c-38.4-57.6-77.6-102.4-144-102.4-44.8 7.2-64 40-53.6 72.8l84.8 281.6c2.4 7.2-1.6 14.4-8 16.8s-18.4-5.6-29.6-17.6l-50.4-63.2c-1.6 10.4 0 27.2 0 34.4 38.4 57.6 102.4 104 144.8 104 40.8-4 60-36.8 52.8-72.8l-85.6-283.2c-0.8-6.4 2.4-12.8 8-15.2 6.4-2.4 19.2 5.6 30.4 17.6l51.2 61.6c1.6-9.6-0.8-28-0.8-34.4zM580.8 628c-32.8 0-59.2 24-59.2 58.4 0 35.2 26.4 58.4 59.2 58.4s59.2-24 59.2-58.4c0-35.2-26.4-58.4-59.2-58.4z" />
<glyph unicode="&#xe91c;" glyph-name="iconfont-kz" d="M832 320h-128v256h128c105.9 0 192 86.1 192 192s-86.1 192-192 192-192-86.1-192-192v-128h-256v128c0 105.9-86.1 192-192 192s-192-86.1-192-192 86.1-192 192-192h128v-256h-128c-105.9 0-192-86.1-192-192s86.1-192 192-192 192 86.1 192 192v128h256v-128c0-105.9 86.1-192 192-192s192 86.1 192 192-86.1 192-192 192zM704 768c0 70.6 57.4 128 128 128s128-57.4 128-128-57.4-128-128-128h-128v128zM192 640c-70.6 0-128 57.4-128 128s57.4 128 128 128 128-57.4 128-128v-128h-128zM320 128c0-70.6-57.4-128-128-128s-128 57.4-128 128 57.4 128 128 128h128v-128zM384 576h256v-256h-256v256zM832 0c-70.6 0-128 57.4-128 128v128h128c70.6 0 128-57.4 128-128s-57.4-128-128-128z" />
<glyph unicode="&#xe91d;" glyph-name="iconfont-layerbottom" d="M0 959.998v-360.563h360.563v360.563h-360.563zM302.873 902.309v-245.182h-245.182v245.182h245.182zM1024 296.564h-360.563v-360.563h360.563v360.563zM721.127-6.308v245.182h245.182v-245.182h-245.182zM923.040 354.255v504.787h-504.788v-317.294h-317.293v-504.787h504.788v317.294z" />
<glyph unicode="&#xe91e;" glyph-name="iconfont-layerdown" horiz-adv-x="1025" d="M948.54 651.995h-305.993c-40.799 0-76.498-35.699-76.498-76.498v-407.991c0-40.799 35.699-76.498 76.498-76.498h305.993c40.799 0 76.498 35.699 76.498 76.498v407.991c0 40.799-35.699 76.498-76.498 76.498zM974.039 167.505c0-15.3-10.2-25.499-25.499-25.499h-305.993c-15.3 0-25.499 10.2-25.499 25.499v407.991c0 15.3 10.2 25.499 25.499 25.499h305.993c15.3 0 25.499-10.2 25.499-25.499v-407.991zM489.55 295.002c-15.3 0-25.499 10.2-25.499 25.499v402.891c0 15.3 10.2 30.599 25.499 30.599h305.993c15.3 0 25.499-10.2 25.499-25.499s10.2-25.499 25.499-25.499 25.499 10.2 25.499 25.499c0 40.799-35.699 76.498-76.498 76.498h-305.993c-40.799 0-76.498-40.799-76.498-81.598v-402.891c0-40.799 35.699-76.498 76.498-76.498 15.3 0 25.499 10.2 25.499 25.499s-10.2 25.499-25.499 25.499zM336.553 142.006h-76.498v637.486c0 15.3-10.2 25.499-25.499 25.499s-25.499-10.2-25.499-25.499v-576.288l-158.097 107.098c-10.2 10.2-30.599 10.2-40.799 0s-5.1-30.599 5.1-40.799l183.596-127.497h-168.296c-15.3 0-25.499-10.2-25.499-25.499s10.2-25.499 25.499-25.499h305.993c15.3 0 25.499 10.2 25.499 25.499s-10.2 25.499-25.499 25.499z" />
<glyph unicode="&#xe91f;" glyph-name="iconfont-layergroup" d="M177.779 113.778h327.111v568.889h-327.111v-568.889zM234.667 625.777h213.334v-455.111h-213.334v455.111zM561.778 782.222h284.444v-568.889h-284.444v568.889zM0-7.111v-56.889h56.889v56.889h-0.001zM138.159-7.111h56.889v-56.889h-56.889v56.889zM276.317-7.111h56.889v-56.889h-56.889v56.889zM414.476-7.111h56.889v-56.889h-56.889v56.889zM0 131.046h56.889v-56.889h-56.889v56.889zM276.317 960h56.889v-56.889h-56.889v56.889zM138.159 960h56.889v-56.889h-56.889v56.889zM0 683.682h56.889v-56.889h-56.889v56.889zM0 821.841h56.889v-56.889h-56.889v56.889zM0 960h56.889v-56.889h-56.889v56.889zM0 545.523h56.889v-56.889h-56.889v56.889zM0 407.366h56.889v-56.889h-56.889v56.889zM0 269.207h56.889v-56.889h-56.889v56.889zM414.476 960h56.889v-56.889h-56.889v56.889zM967.111 269.207h56.889v-56.889h-56.889v56.889zM967.111 407.366h56.889v-56.889h-56.889v56.889zM967.111 683.682h56.889v-56.889h-56.889v56.889zM967.111 545.523h56.889v-56.889h-56.889v56.889zM967.111 821.841h56.889v-56.889h-56.889v56.889zM967.111 960h56.889v-56.889h-56.889v56.889zM690.792-7.111h56.889v-56.889h-56.889v56.889zM828.952-7.111h56.889v-56.889h-56.889v56.889zM690.792 960h56.889v-56.889h-56.889v56.889zM967.111 131.046h56.889v-56.889h-56.889v56.889zM967.111-7.111h56.889v-56.889h-56.889v56.889zM552.634 960h56.889v-56.889h-56.889v56.889zM552.634-7.111h56.889v-56.889h-56.889v56.889zM828.952 960h56.889v-56.889h-56.889v56.889z" />
<glyph unicode="&#xe920;" glyph-name="iconfont-layernext" d="M576.901 960.001h-576.9v-576.904h576.9v576.904zM519.211 440.786h-461.521v461.524h461.521v-461.524zM634.592 786.93v-461.521h-461.521v-389.409h850.929v850.929z" />
<glyph unicode="&#xe921;" glyph-name="iconfont-layerprev" d="M0 960h778.817v-778.82h-778.817v778.82zM836.506 714.817v-57.69h129.804v-663.437h-663.437v129.804h-57.69v-187.493h778.817v778.817z" />
<glyph unicode="&#xe922;" glyph-name="iconfont-layer-remove" d="M1024 432.758c0 9.283-5.501 17.076-13.294 20.858l0.115 0.115-151.394 72.087 151.394 72.087-0.115 0.115c7.793 3.782 13.294 11.575 13.294 20.858s-5.501 17.076-13.294 20.858l0.115 0.115-488.792 232.649c-2.98 1.49-6.303 2.407-9.971 2.407-3.553 0-6.876-0.917-9.971-2.407l-0.115 0.115-488.678-232.764c-7.793-3.782-13.294-11.575-13.294-20.858s5.501-17.076 13.294-20.858l-0.115-0.115 151.394-72.087-151.394-72.087 0.115-0.115c-7.793-3.782-13.294-11.575-13.294-20.858s5.501-17.076 13.294-20.858l-0.115-0.115 151.394-72.087-151.394-72.201 0.115-0.115c-7.793-3.782-13.294-11.575-13.294-20.858s5.501-17.076 13.294-20.858l-0.115-0.115 488.792-232.649c2.98-1.49 6.303-2.407 9.971-2.407s6.876 0.917 9.971 2.407l0.115-0.115 488.678 232.878c7.793 3.782 13.294 11.575 13.294 20.858s-5.501 17.076-13.294 20.858l0.115 0.115-151.394 72.087 151.394 72.087-0.115 0.115c7.793 3.782 13.294 11.575 13.294 20.858v0zM77.359 618.992l434.584 206.863 434.584-206.977-434.584-206.863-434.584 206.977zM946.527 246.639l-434.584-206.977-434.584 206.977 141.309 67.273 283.305-134.776c2.98-1.49 6.303-2.407 9.971-2.407s6.876 0.917 9.971 2.407l0.115-0.115 283.19 134.891 141.309-67.273zM511.943 225.781l-434.584 206.977 141.309 67.273 283.305-134.776c2.98-1.49 6.303-2.407 9.971-2.407s6.876 0.917 9.971 2.407l0.115-0.115 283.19 134.891 141.309-67.273-434.584-206.977zM423.811 533.382c0 0 109.563 82.172 142.913 114.949 7.793 7.679-3.094 12.377-3.094 12.377l-70.941 7.793c0 0-16.732 140.965 228.409 185.775 1.146 3.438-272.532 51.114-315.165-177.18 1.031 0.458-78.734-0.917-78.734-0.917s-6.074-2.98-2.865-8.022c16.618-26.818 70.482-104.979 90.653-130.536 4.24-5.386 8.825-4.24 8.825-4.24z" />
<glyph unicode="&#xe923;" glyph-name="iconfont-layers" d="M813.424 296.216l0.036 0.211 0.311 0.537 0.131-0.4zM782.108 311.985l0.032 0.188 0.278 0.481 0.117-0.358zM18.525 626.599l478.036-272.684c9.166-5.224 19.946-4.72 28.464 0.207 0.213 0.115 0.44 0.169 0.65 0.288l479.813 273.085c9.363 5.336 14.435 15.163 14.318 25.226 0.108 10.057-4.961 19.875-14.318 25.206l-479.813 273.084c-0.209 0.119-0.436 0.174-0.648 0.288-8.519 4.927-19.3 5.431-28.466 0.208l-478.035-272.684c-9.637-5.493-14.742-15.743-14.299-26.111-0.443-10.368 4.662-20.619 14.299-26.111zM510.699 893.681l423.39-240.972-423.39-240.97-422.441 240.971 422.441 240.971zM18.519 417.344l478.036-272.684c9.166-5.224 19.946-4.72 28.464 0.207 0.213 0.115 0.44 0.169 0.65 0.288l479.811 273.085c13.731 7.824 18.518 25.299 10.694 39.030s-25.299 18.518-39.031 10.694l-466.449-265.478-463.837 264.585c-13.731 7.824-31.207 3.038-39.032-10.694s-3.035-31.205 10.694-39.031zM977.146 267.798l-466.45-265.48-463.837 264.586c-13.731 7.824-31.207 3.038-39.032-10.694s-3.035-31.205 10.694-39.031l478.036-272.684c9.166-5.224 19.946-4.719 28.464 0.207 0.213 0.114 0.44 0.169 0.65 0.288l479.811 273.085c13.731 7.824 18.518 25.299 10.694 39.031s-25.298 18.517-39.030 10.693z" />
<glyph unicode="&#xe924;" glyph-name="iconfont-layertop" d="M830.268 766.268v-636.538h-636.538v636.538h636.538zM55.352 517.188v387.457h387.457v-83.026h55.351v138.378h-498.16v-498.16h138.38v55.351zM1023.999 434.161h-139.763v-55.351h84.412v-387.457h-387.457v81.644h-55.351v-136.994h498.16z" />
<glyph unicode="&#xe925;" glyph-name="iconfont-layerup" horiz-adv-x="1025" d="M783.526 257.475h-322.014c-42.935 0-80.504 37.568-80.504 80.504v375.683c0 42.935 37.568 80.504 80.504 80.504h322.014c42.935 0 80.504-37.568 80.504-80.504v-375.683c0-42.935-37.568-80.504-80.504-80.504zM461.512 740.496c-16.101 0-26.835-10.734-26.835-26.835v-375.683c0-16.101 10.734-26.835 26.835-26.835h322.014c16.101 0 26.835 10.734 26.835 26.835v375.683c0 16.101-10.734 26.835-26.835 26.835h-322.014zM944.533 101.835h-322.014c-42.935 0-80.504 32.201-80.504 75.137v0c0 16.101 10.734 26.835 26.835 26.835s26.835-10.734 26.835-26.835v0c0-16.101 10.734-21.468 26.835-21.468h322.014c16.101 0 26.835 10.734 26.835 26.835v370.316c0 16.101-10.734 26.835-26.835 26.835v0c-16.101 0-26.835 10.734-26.835 26.835s10.734 26.835 26.835 26.835v0c42.935 0 80.504-37.568 80.504-80.504v-370.316c0-42.935-37.568-80.504-80.504-80.504zM193.167 101.835c-16.101 0-26.835 10.734-26.835 26.835v536.69l-112.705-101.971c-10.734-10.734-32.201-10.734-42.935 0s-5.367 32.201 5.367 42.935l161.007 150.273c0 5.367 21.468 10.734 26.835 5.367 10.734 0 16.101-10.734 16.101-21.468v-611.827c0-16.101-10.734-26.835-26.835-26.835zM300.505 740.496h-268.345c-16.101 0-26.835 10.734-26.835 26.835s10.734 26.835 26.835 26.835h268.345c16.101 0 26.835-16.101 26.835-26.835s-10.734-26.835-26.835-26.835z" />
<glyph unicode="&#xe926;" glyph-name="iconfont-lock" d="M805.792 521.134v154.356h-0.162c-4.24 157.926-133.592 284.648-292.542 284.648-158.566 0-287.678-126.11-292.509-283.505h-0.086v-155.47h-1.143c-40.41 0-73.162-32.757-73.162-73.167v-438.966c0-40.419 32.756-73.167 73.162-73.167h585.3c40.41 0 73.162 32.757 73.162 73.167v438.966c0 40.035-32.142 72.525-72.019 73.138zM293.655 673.203h0.018c3.032 118.578 100.106 213.772 219.415 213.772s216.383-95.194 219.415-213.772h0.126v-152.041h-438.975v152.041zM804.649 45.603c0-20.202-16.38-36.578-36.586-36.578h-512.128c-20.205 0-36.586 16.374-36.586 36.578v365.819c0 20.202 16.38 36.578 36.586 36.578h512.128c20.207 0 36.586-16.374 36.586-36.578v-365.819zM548.58 244.247v59.722c0 20.204-16.378 36.573-36.581 36.573-20.208 0-36.581-16.375-36.581-36.573v-59.722c-19.234-12.151-32.009-33.6-32.009-58.032 0-37.881 30.709-68.59 68.59-68.59s68.59 30.709 68.59 68.59c0 24.432-12.775 45.881-32.009 58.032z" />
<glyph unicode="&#xe927;" glyph-name="iconfont-mobile" d="M512 121.991c21.114 0 38.212-17.098 38.212-38.212v0c0-21.114-17.098-38.212-38.212-38.212v0c-21.114 0-38.212 17.098-38.212 38.212v0c0 21.114 17.098 38.212 38.212 38.212v0zM842.715 886.697c0 40.507-32.934 73.441-73.441 73.441h-514.547c-40.507 0-73.441-32.934-73.441-73.441v-877.163c0-40.737 33.049-73.671 73.785-73.441l514.432 2.066c40.393 0.23 73.097 33.049 73.097 73.441l0.115 875.097zM766.29 48.895c0-20.311-16.41-36.721-36.721-36.721l-435.139-0.115c-20.311 0-36.721 16.41-36.721 36.721v104.539h508.58v-104.424zM766.29 226.875h-508.58v615.070c0 23.065 16.41 41.77 36.721 41.77h435.139c20.311 0 36.721-18.705 36.721-41.77v-615.070z" />
<glyph unicode="&#xe928;" glyph-name="iconfont-more" d="M1024 448.022c0-282.801-229.241-512.045-512.089-512.045-282.76 0-511.911 229.241-511.911 512.045 0 282.758 229.15 512.001 511.911 512.001 282.846-0.001 512.089-229.241 512.089-512.001zM511.912 912.807c-256.669 0-464.698-208.076-464.698-464.786s208.031-464.828 464.698-464.828c256.754 0 464.869 208.119 464.869 464.828s-208.116 464.786-464.869 464.786zM160.646 447.999c0-49.279 39.949-89.228 89.228-89.228s89.228 39.949 89.228 89.228c0 0 0 0 0 0 0 49.279-39.949 89.228-89.228 89.228s-89.228-39.949-89.228-89.228c0 0 0 0 0 0zM427.376 448c0-49.28 39.949-89.229 89.229-89.229s89.229 39.949 89.229 89.229c0 49.28-39.949 89.229-89.229 89.229s-89.229-39.949-89.229-89.229zM686.248 448c0-49.28 39.949-89.229 89.229-89.229s89.229 39.949 89.229 89.229c0 49.28-39.949 89.229-89.229 89.229s-89.229-39.949-89.229-89.229z" />
<glyph unicode="&#xe929;" glyph-name="iconfont-more-block" d="M0 448c0-66.836 54.182-121.018 121.018-121.018s121.018 54.182 121.018 121.018c0 66.836-54.182 121.018-121.018 121.018s-121.018-54.182-121.018-121.018zM390.982 448c0-66.836 54.182-121.018 121.018-121.018s121.018 54.182 121.018 121.018c0 0 0 0 0 0 0 66.836-54.182 121.018-121.018 121.018s-121.018-54.182-121.018-121.018zM781.964 448c0-66.836 54.182-121.018 121.018-121.018s121.018 54.182 121.018 121.018c0 66.836-54.182 121.018-121.018 121.018s-121.018-54.182-121.018-121.018z" />
<glyph unicode="&#xe92a;" glyph-name="iconfont-page" horiz-adv-x="1025" d="M156.245 603.755h222.592v-44.459h-222.592v44.459zM156.245 470.357h222.592v-44.736h-222.592v44.736zM795.434 530.453l-274.859 295.893h-431.167c-49.024 0-88.917-39.893-88.917-88.939v-712.49c0-49.024 39.893-88.917 88.917-88.917h623.295c49.323 0 89.195 39.893 89.195 88.917v489.919l-7.808 7.808 1.344 7.808zM534.847 744.96l194.837-208.043h-150.357c-24.533 0-44.459 19.947-44.459 44.736v163.307zM757.439 24.918c0-24.512-19.947-44.459-44.736-44.459h-623.295c-24.512 0-44.459 19.947-44.459 44.459v712.49c0 24.512 19.947 44.459 44.459 44.459h400.724v-200.235c0-49.323 39.872-89.195 89.195-89.195h178.112v-467.519zM156.245 203.051h489.898v-44.459h-489.898v44.459zM1016.681 656.299l1.344 7.808-274.859 295.893h-430.89c-49.323 0-89.195-39.893-89.195-88.917h44.459c0 24.512 19.947 44.459 44.736 44.459h400.447v-200.491c0-49.045 39.893-88.939 89.195-88.939h178.133v-467.54c0-24.512-19.947-44.459-44.459-44.459h-89.195v-44.459h89.195c49.024 0 88.917 39.893 88.917 88.917v489.642l-7.829 8.085zM801.898 670.592c-24.512 0-44.459 19.947-44.459 44.459v163.563l194.837-208.021h-150.379zM156.245 336.704h489.898v-44.459h-489.898v44.459z" />
<glyph unicode="&#xe92b;" glyph-name="iconfont-pageedit" d="M212.955 196.886h251.675v-38.719h-251.675v38.719zM212.955 584.078h464.632v-38.719h-464.632v38.719zM212.955 758.315h464.632v-38.719h-464.632v38.719zM212.955 390.482h251.675v-38.719h-251.675v38.719zM58.079 51.688v793.746c0 26.695 21.704 48.399 48.399 48.399h716.306c26.695 0 48.399-21.704 48.399-48.399v-241.996h58.079v241.996c0 58.701-47.776 106.478-106.478 106.478h-716.306c-58.704 0-106.478-47.776-106.478-106.478v-793.746c0-58.701 47.773-106.478 106.478-106.478h241.996v58.079h-241.996c-26.695 0-48.399 21.704-48.399 48.399zM1015.084 427.915l-96.912 96.912c-8.923 8.923-23.386 8.923-32.31 0l-399.842-399.842c-2.561-2.098-4.545-4.935-5.566-8.336l-44.25-147.22c-1.872-6.259-0.019-12.763 4.292-17.074l1.201-0.925 0.935-1.19c4.311-4.311 10.797-6.164 17.054-4.311l147.22 44.258c3.45 1.042 6.323 3.063 8.414 5.673l399.766 399.766c8.915 8.904 8.915 23.385 0.001 32.29zM592.718 21.705l-115.449-34.712 34.712 115.495 309.273 309.281 80.765-80.767-309.3-309.298zM974.701 403.696l-56.528-56.528-80.757 80.767 56.52 56.509c4.46 4.463 11.693 4.463 16.152 0.019l64.611-64.622c4.462-4.463 4.462-11.703 0-16.146z" />
<glyph unicode="&#xe92c;" glyph-name="iconfont-preview" d="M512 627.2c-98.97 0-179.2-80.23-179.2-179.2s80.23-179.2 179.2-179.2 179.2 80.23 179.2 179.2-80.23 179.2-179.2 179.2zM512 320c-70.692 0-128 57.308-128 128s57.308 128 128 128c70.692 0 128-57.308 128-128s-57.308-128-128-128zM512 806.4c-282.77 0-512-358.4-512-358.4s229.23-358.4 512-358.4 512 358.4 512 358.4-229.23 358.4-512 358.4zM512 140.8c-254.492 0-460.8 307.2-460.8 307.2s206.308 307.2 460.8 307.2 460.8-307.2 460.8-307.2-206.308-307.2-460.8-307.2z" />
<glyph unicode="&#xe92d;" glyph-name="iconfont-publish" d="M1000.969 903.425c-3.441 1.636-7.216 2.434-11.286 2.434-14.81 0-28.278-11.076-28.068-11.076-9.020-4.531-901.996-453.998-933.588-470.612-17.831-9.356-28.026-25.341-26.558-41.703 1.133-13.467 10.027-24.082 23.662-28.446 26.809-8.475 297.295-93.812 297.295-93.812l4.95-1.511 17.076 51.269-260.5 81.477 799.709 416.154c-84.833-96.161-430.754-487.898-446.697-505.939-20.6-23.033-30.208-46.193-30.124-72.709l0.294-156.996h-0.084c0 0 0.084-54.794 0.084-54.962v-2.014c1.217-13.845 13.049-24.837 27.187-24.837s26.138 10.993 27.397 24.837v0c0 0 0.545 195.679 0 210.070-0.504 12.797 5.202 27.187 10.951 33.858 5.789 6.545 400.128 453.369 477.073 540.636-21.901-109-129.767-645.062-131.362-652.908-0.839-4.154-2.643-4.154-3.441-4.154-0.629 0-1.343 0.126-2.098 0.378-7.636 2.434-275.352 83.533-286.723 86.973l-4.824 1.469-17.579-51.731 5.202-1.636c2.643-0.797 265.199-81.016 291.295-88.568 5.202-1.511 10.489-2.308 15.817-2.308 27.649 0 50.766 19.845 56.22 48.123 2.14 11.202 27.691 137.948 57.268 284.751 40.738 201.93 86.847 430.838 88.022 438.012l0.629 3.399c2.182 11.79 5.831 31.256-17.202 42.081z" />
<glyph unicode="&#xe92e;" glyph-name="iconfont-reback" d="M586.727-64.132h-289.673v62.589h289.673c183.328 0 332.497 149.097 332.497 332.497 0 183.328-149.169 332.497-332.497 332.497h-489.186v62.518h489.186c217.845 0 395.087-177.241 395.087-395.087-0.072-217.917-177.241-395.015-395.087-395.015zM307.725 429.064l-265.539 265.611 265.539 265.468 44.257-44.257-221.283-221.211 221.283-221.283z" />
<glyph unicode="&#xe92f;" glyph-name="iconfont-ruler" d="M921.572 959.79h-319.565c-1.426 0.228-2.886 0.347-4.373 0.347-1.485 0-2.942-0.119-4.366-0.347h-490.862c-56.554 0-102.372-45.818-102.372-102.372v-819.167c0-56.554 45.819-102.388 102.372-102.388h193.413c56.554 0 102.376 45.834 102.376 102.388v284.356c-0.086 14.803-12.071 26.803-26.932 26.803-14.834 0-26.874-12-26.942-26.803v-0.084c0-0.027 0-0.027 0-0.056 0 0 0-0.055 0-0.084v-278.747c0-29.803-24.14-53.916-53.887-53.916h-182.636c-29.75 0-53.887 24.111-53.887 53.916v110.279h190.232c15.723 0 28.458 12.75 28.458 28.444 0 15.723-12.735 28.443-28.458 28.443h-190.233v142.221h133.346c15.72 0 28.456 12.75 28.456 28.444 0 15.723-12.735 28.445-28.456 28.445h-133.346v142.22h190.232c15.723 0 28.458 12.735 28.458 28.444 0 15.72-12.735 28.458-28.458 28.458h-190.232v242.995c0 29.764 24.139 53.888 53.887 53.888h234.078c-0.149-1.22-0.233-2.461-0.233-3.723v-140.124c0-16.291 12.737-29.5 28.445-29.5s28.458 13.208 28.458 29.5v140.124c0 1.262-0.086 2.503-0.233 3.723h170.882v-115.4c0-16.291 12.75-29.5 28.445-29.5 15.722 0 28.444 13.208 28.444 29.5v115.4h142.454c-0.149-1.22-0.233-2.461-0.233-3.723v-140.124c0-16.291 12.749-29.5 28.443-29.5 15.724 0 28.446 13.208 28.446 29.5v140.124c0 1.262-0.085 2.503-0.233 3.723h91.232c29.75 0 53.887-24.124 53.887-53.888v-214.55h-519.716c-15.709 0-28.456-12.737-28.456-28.458 0-15.709 12.747-28.445 28.456-28.445h533.325c2.477 0 4.881 0.317 7.173 0.912 1.979-0.463 4.039-0.716 6.16-0.716 14.889 0 26.945 12.084 26.945 26.945v249.701c0 56.556-45.832 102.374-102.388 102.374z" />
<glyph unicode="&#xe930;" glyph-name="iconfont-save" d="M855.424 960h-686.869c-92.949 0-168.555-75.605-168.555-168.555v-686.912c0-92.907 75.605-168.533 168.555-168.533h686.912c92.907 0 168.533 75.627 168.533 168.533v686.912c0 92.949-75.627 168.555-168.576 168.555zM213.803 917.269h596.373c-0.171-1.067-0.64-2.048-0.64-3.157v-294.379c0-28.779-23.424-52.224-52.203-52.224h-490.667c-28.779 0-52.224 23.424-52.224 52.224v294.379c0 1.109-0.469 2.091-0.64 3.157zM981.248 104.533c0-69.376-56.448-125.803-125.824-125.803h-686.869c-69.376 0-125.824 56.448-125.824 125.803v686.912c0 69.376 56.448 125.824 125.824 125.824h3.797c-0.171-1.067-0.64-2.048-0.64-3.157v-294.4c0-52.331 42.603-94.955 94.976-94.955h490.603c52.373 0 94.976 42.603 94.976 94.976v294.379c0 1.109-0.469 2.091-0.64 3.157h3.797c69.376 0 125.824-56.469 125.824-125.824v-686.912zM659.157 647.424c11.84 0 21.376 9.557 21.376 21.355v147.2c0 11.776-9.536 21.355-21.376 21.355-11.797 0-21.376-9.579-21.376-21.355v-147.2c0-11.797 9.6-21.355 21.376-21.355z" />
<glyph unicode="&#xe931;" glyph-name="iconfont-arrowleft" d="M357.374 448.486l388.984 386.361c11.983 11.891 9.667 33.692-5.17 48.678-14.832 14.988-36.574 17.478-48.555 5.587l-419.43-416.588c-6.182-6.146-8.548-14.923-7.362-24.037-1.186-9.115 1.18-17.89 7.362-24.027l419.43-416.603c11.98-11.893 33.723-9.39 48.555 5.592 14.837 14.988 17.153 36.78 5.17 48.673l-388.984 386.366z" />
<glyph unicode="&#xe932;" glyph-name="iconfont-set" d="M512.007 644.861c-110.934 0-201.176-89.035-201.176-198.518 0-109.453 90.239-198.519 201.176-198.519 110.922 0 201.157 89.065 201.157 198.519 0 109.483-90.236 198.518-201.157 198.518zM512.007 304.561c-79.223 0-143.705 63.601-143.705 141.782 0 78.209 64.481 141.812 143.705 141.812 79.222 0 143.689-63.603 143.689-141.812 0-78.181-64.466-141.782-143.689-141.782zM943.046 446.344c0 49.606 18.848 97.192 53.084 133.979l11.47 12.323-5.383 15.869c-22.046 64.862-56.722 123.975-103.073 175.637l-11.207 12.527-16.531-3.609c-48.844-10.68-100.74-2.906-143.879 21.678-43.594 24.849-75.965 64.833-91.148 112.622l-5.076 16.018-16.662 3.314c-67.621 13.435-137.69 13.435-205.28 0l-16.678-3.314-5.075-16.018c-15.168-47.758-47.526-87.775-91.148-112.622-43.11-24.554-94.991-32.357-143.865-21.678l-16.517 3.609-11.205-12.527c-46.366-51.692-81.041-110.775-103.074-175.637l-5.383-15.842 11.455-12.322c34.207-36.815 53.054-84.4 53.054-133.979 0-49.605-18.848-97.191-53.071-133.978l-11.454-12.321 5.383-15.872c22.031-64.833 56.722-123.944 103.058-175.637l11.222-12.527 16.515 3.609c48.832 10.679 100.741 2.905 143.865-21.679 43.624-24.85 75.996-64.864 91.133-112.622l5.077-16.017 16.692-3.316c33.81-6.748 68.353-10.15 102.662-10.15 34.294 0 68.808 3.402 102.618 10.15l16.664 3.316 5.075 16.017c15.18 47.757 47.54 87.773 91.146 112.592 43.169 24.613 95.050 32.328 143.896 21.708l16.531-3.609 11.207 12.498c46.35 51.689 81.026 110.773 103.073 175.635l5.383 15.84-11.47 12.322c-34.22 36.848-53.084 84.433-53.084 134.011zM942.312 287.194c-17.793-46.821-43.199-90.123-75.746-128.991-57.689 8.595-117.359-2.407-167.789-31.125-51.045-29.074-90.091-74.251-111.406-128.347-49.901-8.125-100.843-8.125-150.773 0-21.313 54.125-60.359 99.273-111.404 128.375-50.415 28.721-110.026 39.719-167.745 31.098-32.563 38.898-57.983 82.2-75.776 129.050 36.713 45.206 56.735 101.091 56.735 159.118s-20.022 113.887-56.72 159.122c17.777 46.82 43.196 90.121 75.761 129.019 57.792-8.595 117.358 2.405 167.758 31.097 51.031 29.102 90.078 74.25 111.406 128.374 49.915 8.098 100.857 8.126 150.772 0 21.314-54.124 60.36-99.272 111.405-128.374 50.416-28.692 110.026-39.692 167.775-31.097 32.547-38.899 57.953-82.17 75.746-129.019-36.699-45.208-56.735-101.064-56.735-159.151 0-58.028 20.037-113.914 56.735-159.151z" />
<glyph unicode="&#xe933;" glyph-name="iconfont-shujudaoru" d="M1022.254 884.604v75.534h-802.008v-293.921h71.769v217.132h657.9v-874.461h-656.873v145.934h-73.024v-218.958h802.807v948.74h-0.57zM440.231 233.094l51.573-51.573 224.092 224.092-51.573 51.573-0.114-0.114-173.546 173.774-51.573-51.573 132.47-132.47h-570.385v-73.024h579.627l-140.571-140.685z" />
<glyph unicode="&#xe934;" glyph-name="iconfont-trash" d="M621.712 155.436c-20.223 0-36.567 16.344-36.567 36.567v402.289c0 20.223 16.344 36.574 36.567 36.574s36.574-16.351 36.574-36.574v-402.287c0.001-20.224-16.35-36.568-36.574-36.568v0zM402.288 155.436c-20.23 0-36.574 16.344-36.574 36.567v402.289c0 20.223 16.344 36.574 36.574 36.574 20.223 0 36.567-16.351 36.567-36.574v-402.287c0-20.224-16.344-36.568-36.567-36.568v0zM987.425 777.148h-182.857v73.142c0 60.491-48.823 109.715-108.872 109.715h-366.557c-60.484 0-109.708-49.225-109.708-109.715v-73.142h-182.857c-20.23 0-36.574-16.344-36.574-36.574 0-20.223 16.344-36.567 36.574-36.567h950.851c20.223 0 36.574 16.344 36.574 36.567 0.001 20.23-16.35 36.574-36.574 36.574v0zM292.572 850.29c0 20.151 16.417 36.574 36.567 36.574h366.557c20.046 0 35.732-16.056 35.732-36.574v-73.142h-438.856v73.142zM768.146-63.995h-512.076c-60.485 0-109.709 49.225-109.709 109.715v549.117c0 20.189 16.385 36.573 36.569 36.573 20.189 0 36.573-16.383 36.573-36.573v-549.117c0-20.189 16.418-36.574 36.569-36.574h512.075c20.185 0 36.569 16.385 36.569 36.574v547.622c0 20.185 16.35 36.569 36.573 36.569 20.224 0 36.574-16.385 36.574-36.569v-547.622c0-60.491-49.231-109.715-109.715-109.715v0z" />
<glyph unicode="&#xe935;" glyph-name="iconfont-unie" d="M627.328 283.114h197.411c28.775 0 52.095-23.32 52.095-52.095v-197.411c0-28.775-23.32-52.095-52.095-52.095h-197.411c-28.775 0-52.095 23.32-52.095 52.095v197.411c0 28.775 23.32 52.095 52.095 52.095zM856.489 332.123h-263.379c-18.274-0.027-33.916-6.361-46.899-18.987s-19.48-28.076-19.48-46.35v-264.435c0-18.247 6.498-33.697 19.48-46.35s28.625-18.973 46.899-18.973h263.379c18.247 0.014 33.697 6.333 46.35 18.973 12.654 12.626 18.973 28.090 18.973 46.35v264.435c-0.014 18.247-6.347 33.697-18.973 46.35s-28.076 18.987-46.35 18.987zM96.786 810.914h197.411c28.775 0 52.095-23.32 52.095-52.095v-197.411c0-28.775-23.32-52.095-52.095-52.095h-197.411c-28.775 0-52.095 23.32-52.095 52.095v197.411c0 28.775 23.32 52.095 52.095 52.095zM328.702 858.854h-263.379c-18.247-0.027-33.71-6.347-46.35-18.973-12.654-12.64-18.973-28.090-18.973-46.364v-263.379c0.014-18.274 6.333-33.902 18.973-46.899 12.626-12.983 28.076-19.48 46.35-19.48h263.379c18.274 0 33.902 6.498 46.899 19.48 12.983 12.996 19.48 28.625 19.48 46.899v263.379c0 18.26-6.498 33.697-19.48 46.364-12.996 12.64-28.625 18.973-46.899 18.973zM1002.93 742.985l-195.958 195.958c-14.052 13.353-30.379 20.029-48.996 20.029-18.603 0-34.93-6.676-48.982-20.029l-195.958-195.958c-13.353-14.052-20.015-30.558-20.015-49.517 0-18.973 6.662-35.136 20.015-48.489l195.958-195.958c14.052-14.038 30.379-21.057 48.982-21.057 18.617 0 34.944 7.019 48.996 21.057l195.958 195.958c14.038 13.353 21.070 29.516 21.070 48.489 0 18.959-7.032 35.465-21.070 49.517zM793.454 880.007l153.844-153.844c17.547-17.547 17.547-46.008 0-63.555l-153.844-153.844c-17.547-17.547-46.008-17.547-63.555 0l-153.844 153.844c-17.547 17.547-17.547 46.008 0 63.555l153.844 153.844c17.547 17.547 46.008 17.547 63.555 0zM328.702 332.123h-263.379c-18.247-0.027-33.71-6.361-46.35-18.987-12.654-12.626-18.973-28.076-18.973-46.35v-264.435c0.014-18.247 6.333-33.697 18.973-46.35 12.626-12.654 28.076-18.973 46.35-18.973h263.379c18.274 0.014 33.902 6.333 46.899 18.973 12.983 12.626 19.48 28.090 19.48 46.35v264.435c0 18.247-6.498 33.697-19.48 46.35-12.996 12.654-28.625 18.987-46.899 18.987zM98.156 285.855h197.411c28.775 0 52.095-23.32 52.095-52.095v-197.411c0-28.775-23.32-52.095-52.095-52.095h-197.411c-28.775 0-52.095 23.32-52.095 52.095v197.411c0 28.775 23.32 52.095 52.095 52.095z" />
<glyph unicode="&#xe936;" glyph-name="iconfont-unie-block" d="M-59.187 929.523v0 0zM330.393 852.631q27.026 0 46.24-18.715t19.214-45.711v-259.731q0-27.026-19.214-46.24t-46.24-19.214h-259.731q-27.026 0-45.711 19.214t-18.715 46.24v259.731q0 27.026 18.715 45.711t45.711 18.715h259.731zM330.393 333.202q27.026 0 46.24-18.715t19.214-45.711v-260.762q0-27.026-19.214-45.711t-46.24-18.715h-259.731q-27.026 0-45.711 18.715t-18.715 45.711v260.762q0 27.026 18.715 45.711t45.711 18.715h259.731zM850.852 333.202q27.026 0 45.711-18.715t18.715-45.711v-260.762q0-27.026-18.715-45.711t-45.711-18.715h-259.731q-27.026 0-46.24 18.715t-19.214 45.711v260.762q0 27.026 19.214 45.711t46.24 18.715h259.731zM995.261 738.371q20.777-20.777 20.777-48.835t-20.777-47.804l-193.245-193.245q-20.777-20.777-48.302-20.777t-48.302 20.777l-193.245 193.245q-19.748 19.748-19.748 47.804t19.748 48.835l193.245 193.245q20.777 19.748 48.302 19.748t48.302-19.748z" />
<glyph unicode="&#xe937;" glyph-name="iconfont-web" d="M880.1 127.914h-224.060v-128.034h64.017c17.685 0 32.009-14.34 32.009-32.009 0-17.685-14.324-32.009-32.009-32.009h-384.103c-17.685 0-32.009 14.324-32.009 32.009 0 17.669 14.34 32.009 32.009 32.009h64.017v128.034h-256.069c-70.707 0-128.034 57.327-128.034 128.034v576.154c0 70.723 57.327 128.034 128.034 128.034h736.197c70.707 0 128.034-57.327 128.034-128.034v-576.154c0-70.707-57.327-128.034-128.034-128.034zM592.022-0.12v128.034h-128.034v-128.034h128.034zM944.117 832.103c0 35.353-28.664 64.017-64.017 64.017h-736.197c-35.353 0-64.017-28.664-64.017-64.017v-448.12h864.232v448.12zM944.117 319.966h-864.232v-64.017c0-35.353 28.664-64.017 64.017-64.017h736.197c35.353 0 64.017 28.664 64.017 64.017v64.017z" />
<glyph unicode="&#xe938;" glyph-name="chevron-with-circle-right" d="M565.333 460.8l-122.773 133.653c-10.453 10.56-10.453 27.68 0 38.294 10.453 10.506 27.467 10.506 37.867 0l149.706-152.747c10.453-10.614 10.453-27.733 0-38.24l-149.706-152.747c-10.4-10.614-27.414-10.56-37.867 0-10.453 10.506-10.453 27.627 0 38.24l122.773 133.547zM512 972.8c282.773 0 512-229.227 512-512 0-282.827-229.227-512-512-512s-512 229.173-512 512c0 282.773 229.227 512 512 512zM512 15.253c246.027 0 445.547 199.467 445.547 445.547s-199.52 445.547-445.547 445.547c-246.133 0-445.547-199.467-445.547-445.547-0.053-246.080 199.414-445.547 445.547-445.547z" />
<glyph unicode="&#xe939;" glyph-name="chevron-with-circle-up" d="M531.147 578.933c-10.614 10.453-27.733 10.453-38.24 0l-152.747-149.706c-10.614-10.4-10.56-27.414 0-37.867 10.506-10.453 27.627-10.453 38.24 0l133.6 122.773 133.653-122.773c10.56-10.453 27.627-10.453 38.294 0 10.506 10.453 10.506 27.467 0 37.867l-152.8 149.706zM512 972.8c-282.773 0-512-229.227-512-512 0-282.827 229.227-512 512-512s512 229.173 512 512c0 282.773-229.227 512-512 512zM512 15.253c-246.133 0-445.547 199.467-445.547 445.547s199.414 445.547 445.547 445.547c246.027 0 445.547-199.467 445.547-445.547s-199.52-445.547-445.547-445.547z" />
<glyph unicode="&#xe93a;" glyph-name="dots-three-horizontal" d="M512.055 583.235c-67.617 0-122.49-54.817-122.49-122.435s54.873-122.435 122.49-122.435c67.617 0 122.379 54.817 122.379 122.435s-54.762 122.435-122.379 122.435zM122.49 583.235c-67.617 0-122.49-54.817-122.49-122.435s54.873-122.435 122.49-122.435c67.617 0 122.379 54.873 122.379 122.435s-54.762 122.435-122.379 122.435zM901.621 583.235c-67.617 0-122.49-54.817-122.49-122.435s54.873-122.435 122.49-122.435c67.617 0 122.379 54.817 122.379 122.435s-54.762 122.435-122.379 122.435z" />
<glyph unicode="&#xe93b;" glyph-name="emoji-happy" d="M512 972.8c-282.773 0-512-229.227-512-512s229.227-512 512-512c282.72 0 512 229.227 512 512.053 0 282.72-229.28 511.947-512 511.947zM512 55.52c-223.84 0-405.333 181.44-405.333 405.333s181.44 405.28 405.333 405.28c223.84 0 405.386-181.44 405.386-405.333s-181.547-405.28-405.386-405.28zM378.72 474.133c44.16 0 79.947 41.76 79.947 93.333s-35.84 93.333-80 93.333-80-41.76-80-93.333 35.84-93.333 80.053-93.333zM645.333 474.133c44.214 0 80 41.76 80 93.333s-35.84 93.333-80 93.333-80-41.814-80-93.333 35.84-93.333 80-93.333zM743.52 389.547c-19.36 9.92-43.467 2.294-53.76-17.067-1.814-3.52-46.347-84.96-177.706-84.96-130.72 0-175.52 80.694-177.76 84.906-10.027 19.467-33.706 27.414-53.547 17.547-19.733-9.92-27.733-33.92-17.867-53.706 2.667-5.28 66.56-128.747 249.173-128.747 182.667 0 246.453 123.52 249.067 128.8 9.814 19.573 1.92 43.2-17.6 53.227z" />
<glyph unicode="&#xe93c;" glyph-name="emoji-neutral" d="M512 972.8c-282.773 0-512-229.227-512-512s229.227-512 512-512c282.72 0 512 229.227 512 512.053 0 282.72-229.28 511.947-512 511.947zM512 55.52c-223.84 0-405.333 181.44-405.333 405.333 0 223.84 181.44 405.333 405.333 405.333 223.84 0 405.333-181.44 405.333-405.333s-181.494-405.333-405.333-405.333zM645.333 660.747c-44.16 0-80-41.76-80-93.28s35.84-93.333 80-93.333c44.214 0 80 41.76 80 93.333s-35.786 93.28-80 93.28zM378.72 474.133c44.16 0 79.947 41.76 79.947 93.333s-35.84 93.333-80 93.333c-44.16 0-80-41.76-80-93.333s35.84-93.333 80.053-93.333zM672 340.8h-320c-22.080 0-40-17.92-40-40s17.92-40 40-40h320c22.080 0 40 17.92 40 40 0 22.133-17.867 40-40 40z" />
<glyph unicode="&#xe93d;" glyph-name="emoji-sad" d="M512.027 972.8c-282.812 0-512.027-229.215-512.027-511.973 0-282.812 229.215-512.027 512.027-512.027 282.705 0 511.973 229.215 511.973 512.027-0.053 282.758-229.321 511.973-511.973 511.973zM511.974 55.568c-223.828 0-405.312 181.43-405.312 405.312 0 223.828 181.43 405.312 405.312 405.312 223.828 0 405.312-181.43 405.312-405.312s-181.484-405.312-405.312-405.312zM645.354 474.16c44.158 0 79.996 41.758 79.996 93.328s-35.838 93.328-79.996 93.328c-44.158 0-79.996-41.758-79.996-93.328s35.785-93.328 79.996-93.328zM378.701 474.16c44.158 0 79.996 41.758 79.996 93.328s-35.838 93.328-79.996 93.328c-44.158 0-79.996-41.758-79.996-93.328s35.785-93.328 79.996-93.328zM512.080 394.164c-182.604 0-246.493-123.46-249.16-128.74-9.919-19.785-1.867-43.784 17.866-53.703 5.76-2.827 11.839-4.213 17.866-4.213 14.666 0 28.799 8.053 35.838 22.079 0.427 0.906 43.837 84.582 177.591 84.582 131.354 0 175.885-81.435 177.485-84.529 9.813-19.732 33.865-27.892 53.65-17.919 19.785 9.813 27.785 33.918 17.919 53.65-2.613 5.28-66.45 128.793-249.054 128.793z" />
<glyph unicode="&#xe93e;" glyph-name="warning" d="M1004.431 125.193l-379.333 758.729c-21.402 42.837-65.156 69.898-113.082 69.898s-91.68-27.061-113.082-69.898l-379.333-758.729c-19.601-39.201-17.514-85.768 5.532-123.072 23.046-37.241 63.733-59.94 107.55-59.94h758.634c43.848 0 84.535 22.699 107.55 59.94 23.046 37.304 25.133 83.871 5.564 123.072zM575.18 100.25c0-17.482-14.131-31.614-31.614-31.614h-63.227c-17.482 0-31.614 14.131-31.614 31.614v63.227c0 17.482 14.131 31.614 31.614 31.614h63.227c17.482 0 31.614-14.131 31.614-31.614v-63.227zM575.18 353.16c0-17.482-14.131-31.614-31.614-31.614h-63.227c-17.482 0-31.614 14.131-31.614 31.614v316.137c0 17.451 14.131 31.614 31.614 31.614h63.227c17.482 0 31.614-14.163 31.614-31.614v-316.137z" />
<glyph unicode="&#xe93f;" glyph-name="codepen" d="M1008.009 634.427l-477.106 318.070c-11.446 7.632-26.36 7.632-37.806 0l-477.106-318.070c-9.48-6.32-15.176-16.961-15.176-28.354v-318.070c0-11.395 5.695-22.036 15.176-28.354l477.106-318.070c5.723-3.817 12.313-5.725 18.903-5.725s13.18 1.908 18.903 5.725l477.106 318.070c9.48 6.32 15.176 16.961 15.176 28.354v318.070c0 11.393-5.695 22.034-15.176 28.354zM512 328.957l-177.117 118.080 177.117 118.077 177.117-118.077-177.117-118.080zM546.079 624.31v236.157l381.589-254.396-177.115-118.077-204.474 136.316zM477.921 624.31l-204.474-136.316-177.117 118.077 381.591 254.396v-236.157zM212.011 447.037l-143.038-95.359v190.717l143.038-95.357zM273.447 406.080l204.474-136.316v-236.155l-381.591 254.391 177.117 118.080zM546.079 269.764l204.474 136.316 177.117-118.080-381.591-254.393v236.157zM811.989 447.037l143.038 95.357v-190.719l-143.038 95.362z" />
<glyph unicode="&#xe940;" glyph-name="iconfont-arrowright" d="M672 448l-384-384c-12.8-12.8-12.8-31.999 0-44.799s31.999-12.8 44.799 0l403.2 403.2c6.4 6.4 12.8 19.199 12.8 25.6s0 19.199-6.4 25.599l-409.6 409.6c-12.8 12.8-31.999 12.8-44.799 0s-12.8-31.999 0-44.799l384-390.399z" />
<glyph unicode="&#xe941;" glyph-name="iconfont-arrowsbottom" d="M533.931 220.412c-12.692-12.692-33.188-12.774-45.779-0.184l-413.771 413.772c-12.591 12.591-12.508 33.087 0.184 45.779v0c12.692 12.692 33.188 12.774 45.779 0.184l413.772-413.772c12.589-12.591 12.507-33.087-0.185-45.779v0zM947.852 678.737c12.692-12.692 12.774-33.188 0.184-45.779l-413.772-413.771c-12.591-12.591-33.087-12.508-45.779 0.184v0c-12.692 12.692-12.774 33.188-0.184 45.779l413.771 413.771c12.592 12.59 33.088 12.508 45.78-0.184v0z" />
<glyph unicode="&#xe942;" glyph-name="iconfont-arrowtop" d="M489.57 710.656l-479.157-479.122c-13.907-13.943-13.907-36.48 0-50.422 13.943-13.943 36.515-13.943 50.458 0l455.765 455.73 448.241-448.205c13.516-13.551 35.446-13.551 48.961 0 13.586 13.515 13.586 35.446 0 48.995l-465.464 465.5c-1.819 1.819-4.030 2.71-6.133 4.030-0.82 1.105-1.248 2.461-2.282 3.495-13.907 13.907-36.48 13.907-50.387 0z" />
<glyph unicode="&#xe943;" glyph-name="iconfont-close" d="M822.003 183.178l0.023 0.023-575.522 575.483c-5.788 5.792-13.786 9.375-22.621 9.375-17.662 0-31.98-14.318-31.98-31.98 0-8.834 3.583-16.832 9.373-22.62l574.836-574.796c5.839-6.278 14.167-10.21 23.416-10.21 17.662 0 31.98 14.318 31.98 31.98 0 8.901-3.638 16.948-9.505 22.746zM776.784 758.552l-0.023 0.023-575.483-575.522c-5.792-5.788-9.375-13.786-9.375-22.621 0-17.662 14.318-31.98 31.98-31.98 8.834 0 16.832 3.583 22.62 9.373l574.797 574.836c6.278 5.839 10.21 14.167 10.21 23.416 0 17.662-14.318 31.98-31.98 31.98-8.902 0-16.95-3.638-22.747-9.505z" />
<glyph unicode="&#xe944;" glyph-name="iconfont-drag" d="M292.514 886.975c0-40.406 32.756-73.162 73.162-73.162s73.162 32.756 73.162 73.162c0 40.406-32.756 73.162-73.162 73.162s-73.162-32.756-73.162-73.162zM585.163 886.975c0-40.406 32.756-73.162 73.162-73.162s73.162 32.756 73.162 73.162c0 40.406-32.756 73.162-73.162 73.162s-73.162-32.756-73.162-73.162zM292.514 594.325c0-40.406 32.756-73.162 73.162-73.162s73.162 32.756 73.162 73.162c0 40.406-32.756 73.162-73.162 73.162s-73.162-32.756-73.162-73.162zM585.163 594.325c0-40.406 32.756-73.162 73.162-73.162s73.162 32.756 73.162 73.162c0 40.406-32.756 73.162-73.162 73.162s-73.162-32.756-73.162-73.162zM292.514 301.675c0-40.406 32.756-73.162 73.162-73.162s73.162 32.756 73.162 73.162c0 40.406-32.756 73.162-73.162 73.162s-73.162-32.756-73.162-73.162zM585.163 301.675c0-40.406 32.756-73.162 73.162-73.162s73.162 32.756 73.162 73.162c0 40.406-32.756 73.162-73.162 73.162s-73.162-32.756-73.162-73.162zM292.514 9.025c0-40.406 32.756-73.162 73.162-73.162s73.162 32.756 73.162 73.162c0 40.406-32.756 73.162-73.162 73.162s-73.162-32.756-73.162-73.162zM585.163 9.025c0-40.406 32.756-73.162 73.162-73.162s73.162 32.756 73.162 73.162c0 40.406-32.756 73.162-73.162 73.162s-73.162-32.756-73.162-73.162z" />
<glyph unicode="&#xe945;" glyph-name="lifebuoy" d="M859.546 808.346c-191.949 191.949-503.142 191.949-695.040 0-192-192-192-503.194-0.102-695.091 192-192 503.194-192 695.194 0 191.898 191.949 191.898 503.142-0.051 695.091zM345.498 294.298c-92.006 92.006-92.006 241.101 0 333.056 91.904 91.955 241.101 91.955 333.107 0 92.006-92.006 91.904-241.101 0-333.056-92.006-92.006-241.101-92.006-333.107 0zM785.766 313.395c49.562 92.109 49.613 202.701 0 294.861l91.29 49.152c65.997-122.419 65.997-270.848 0.102-393.114l-91.392 49.101zM708.557 825.907l-49.203-91.341c-92.109 49.51-202.701 49.51-294.707 0l-49.203 91.29c122.368 65.946 270.694 65.946 393.114 0.051zM146.944 657.408l91.341-49.203c-49.562-92.058-49.562-202.598-0.051-294.707l-91.341-49.203c-65.946 122.317-65.894 270.694 0.051 393.114zM315.341 95.795l49.203 91.29c92.109-49.613 202.752-49.613 294.861 0l49.203-91.392c-122.47-65.894-270.848-65.894-393.267 0.102z" />
<glyph unicode="&#xe946;" glyph-name="clock2" d="M512 960c-282.784 0-512-229.248-512-512s229.216-512 512-512 512 229.248 512 512c0 282.752-229.216 512-512 512zM512 64c-212.064 0-384 171.936-384 384s171.936 384 384 384 384-171.936 384-384-171.936-384-384-384zM736 512h-160v224c0 17.664-14.304 32-32 32h-64c-17.696 0-32-14.336-32-32v-320c0-17.696 14.304-32 32-32h256c17.696 0 32 14.304 32 32v64c0 17.696-14.304 32-32 32z" />
<glyph unicode="&#xe947;" glyph-name="switch" d="M960 448c0-247.424-200.576-448-448-448s-448 200.576-448 448c0 109.056 39.232 208.736 104 286.4 4.928 9.088 11.776 16.992 20.32 22.72 1.44 1.504 2.72 3.2 4.192 4.672 0.032-0.736 0.352-1.44 0.416-2.176 9.248 5.184 19.744 8.384 31.072 8.384 35.328 0 64-28.672 64-64 0-22.272-11.36-41.856-28.64-53.312 1.12-0.832 1.92-1.856 3.072-2.688-44-54.784-70.432-124.256-70.432-200 0-176.736 143.264-320 320-320s320 143.264 320 320c0 75.744-26.432 145.216-70.432 200 1.152 0.832 1.984 1.856 3.072 2.688-17.28 11.456-28.64 31.040-28.64 53.312 0 35.328 28.672 64 64 64 11.328 0 21.824-3.2 31.072-8.384 0.064 0.736 0.384 1.44 0.448 2.176 1.44-1.472 2.72-3.168 4.192-4.672 8.544-5.728 15.36-13.632 20.32-22.72 64.704-77.664 103.968-177.344 103.968-286.4zM544 384h-64c-17.696 0-32 14.304-32 32v448c0 17.664 14.304 32 32 32h64c17.696 0 32-14.336 32-32v-448c0-17.696-14.304-32-32-32z" />
<glyph unicode="&#xe948;" glyph-name="iconfont-date" d="M313.026 476.423h-113.701v-113.696h113.701v113.696zM284.601 391.148h-56.854v56.854h56.854v-56.854zM568.852 476.423h-113.701v-113.696h113.701v113.696zM540.426 391.148h-56.85v56.854h56.85v-56.854zM824.673 476.423h-113.7v-113.696h113.701v113.696zM796.252 391.148h-56.85v56.854h56.85v-56.854zM313.026 220.598h-113.701v-113.696h113.701v113.696zM284.601 135.323h-56.854v56.854h56.854v-56.854zM568.852 220.598h-113.701v-113.696h113.701v113.696zM540.426 135.323h-56.85v56.854h56.85v-56.854zM824.673 220.598h-113.7v-113.696h113.701v113.696zM796.252 135.323h-56.85v56.854h56.85v-56.854zM938.374 845.945h-142.122v42.641c0 39.085-31.977 71.062-71.062 71.062s-71.062-31.977-71.062-71.062v-42.641h-284.251v42.641c0 39.085-31.977 71.062-71.062 71.062-39.082 0-71.067-31.977-71.067-71.062v-42.641h-142.122c-47.096 0-85.279-38.168-85.279-85.275v-739.045c0-47.107 38.183-85.275 85.279-85.275h852.749c47.104 0 85.279 38.168 85.279 85.275v739.045c0 47.108-38.175 85.275-85.279 85.275zM710.974 888.587c0 7.708 6.512 14.213 14.216 14.213 7.7 0 14.213-6.505 14.213-14.213v-142.125c0-7.708-6.512-14.213-14.213-14.213-7.703 0-14.216 6.505-14.216 14.213v142.125zM284.601 888.587c0 7.708 6.508 14.213 14.213 14.213 7.703 0 14.213-6.505 14.213-14.213v-142.125c0-7.708-6.508-14.213-14.213-14.213-7.703 0-14.213 6.505-14.213 14.213v142.125zM966.802 21.626c0-15.671-12.75-28.421-28.428-28.421h-852.749c-15.674 0-28.428 12.75-28.428 28.421v568.494h909.606v-568.494zM966.802 618.552h-909.606v142.118c0 15.678 12.754 28.425 28.428 28.425h142.122v-42.634c0-39.085 31.984-71.067 71.067-71.067 39.085 0 71.062 31.981 71.062 71.067v42.634h284.251v-42.634c0-39.085 31.977-71.067 71.062-71.067s71.062 31.981 71.062 71.067v42.634h142.122c15.678 0 28.428-12.747 28.428-28.425v-142.118z" />
<glyph unicode="&#xf073;" glyph-name="calendar" horiz-adv-x="951" d="M73.143 0h164.571v164.571h-164.571v-164.571zM274.286 0h182.857v164.571h-182.857v-164.571zM73.143 201.143h164.571v182.857h-164.571v-182.857zM274.286 201.143h182.857v182.857h-182.857v-182.857zM73.143 420.571h164.571v164.571h-164.571v-164.571zM493.714 0h182.857v164.571h-182.857v-164.571zM274.286 420.571h182.857v164.571h-182.857v-164.571zM713.143 0h164.571v164.571h-164.571v-164.571zM493.714 201.143h182.857v182.857h-182.857v-182.857zM292.571 694.857v164.571q0 7.429-5.429 12.857t-12.857 5.429h-36.571q-7.429 0-12.857-5.429t-5.429-12.857v-164.571q0-7.429 5.429-12.857t12.857-5.429h36.571q7.429 0 12.857 5.429t5.429 12.857zM713.143 201.143h164.571v182.857h-164.571v-182.857zM493.714 420.571h182.857v164.571h-182.857v-164.571zM713.143 420.571h164.571v164.571h-164.571v-164.571zM731.429 694.857v164.571q0 7.429-5.429 12.857t-12.857 5.429h-36.571q-7.429 0-12.857-5.429t-5.429-12.857v-164.571q0-7.429 5.429-12.857t12.857-5.429h36.571q7.429 0 12.857 5.429t5.429 12.857zM950.857 731.428v-731.429q0-29.714-21.714-51.429t-51.429-21.714h-804.571q-29.714 0-51.429 21.714t-21.714 51.429v731.429q0 29.714 21.714 51.429t51.429 21.714h73.143v54.857q0 37.714 26.857 64.571t64.571 26.857h36.571q37.714 0 64.571-26.857t26.857-64.571v-54.857h219.429v54.857q0 37.714 26.857 64.571t64.571 26.857h36.571q37.714 0 64.571-26.857t26.857-64.571v-54.857h73.143q29.714 0 51.429-21.714t21.714-51.429z" />
<glyph unicode="&#xf0d7;" glyph-name="caret-down" horiz-adv-x="585" d="M585.143 548.571q0-14.857-10.857-25.714l-256-256q-10.857-10.857-25.714-10.857t-25.714 10.857l-256 256q-10.857 10.857-10.857 25.714t10.857 25.714 25.714 10.857h512q14.857 0 25.714-10.857t10.857-25.714z" />
<glyph unicode="&#xf0d8;" glyph-name="caret-up" horiz-adv-x="585" d="M585.143 256q0-14.857-10.857-25.714t-25.714-10.857h-512q-14.857 0-25.714 10.857t-10.857 25.714 10.857 25.714l256 256q10.857 10.857 25.714 10.857t25.714-10.857l256-256q10.857-10.857 10.857-25.714z" />
<glyph unicode="&#xf0d9;" glyph-name="caret-left" horiz-adv-x="402" d="M365.714 694.857v-512q0-14.857-10.857-25.714t-25.714-10.857-25.714 10.857l-256 256q-10.857 10.857-10.857 25.714t10.857 25.714l256 256q10.857 10.857 25.714 10.857t25.714-10.857 10.857-25.714z" />
<glyph unicode="&#xf0da;" glyph-name="caret-right" horiz-adv-x="329" d="M329.143 438.857q0-14.857-10.857-25.714l-256-256q-10.857-10.857-25.714-10.857t-25.714 10.857-10.857 25.714v512q0 14.857 10.857 25.714t25.714 10.857 25.714-10.857l256-256q10.857-10.857 10.857-25.714z" />
<glyph unicode="&#xf114;" glyph-name="folder-o" horiz-adv-x="951" d="M877.714 201.143v402.286q0 22.857-16 38.857t-38.857 16h-402.286q-22.857 0-38.857 16t-16 38.857v36.571q0 22.857-16 38.857t-38.857 16h-182.857q-22.857 0-38.857-16t-16-38.857v-548.571q0-22.857 16-38.857t38.857-16h694.857q22.857 0 38.857 16t16 38.857zM950.857 603.428v-402.286q0-52.571-37.714-90.286t-90.286-37.714h-694.857q-52.571 0-90.286 37.714t-37.714 90.286v548.571q0 52.571 37.714 90.286t90.286 37.714h182.857q52.571 0 90.286-37.714t37.714-90.286v-18.286h384q52.571 0 90.286-37.714t37.714-90.286z" />
<glyph unicode="&#xf115;" glyph-name="folder-open-o" horiz-adv-x="1091" d="M1017.714 418.857q0 20-30.286 20h-621.714q-22.857 0-48.857-12.286t-40.857-30l-168-207.429q-10.286-13.714-10.286-22.857 0-20 30.286-20h621.714q22.857 0 49.143 12.571t40.571 30.286l168 207.429q10.286 12.571 10.286 22.286zM365.714 512h438.857v91.429q0 22.857-16 38.857t-38.857 16h-329.143q-22.857 0-38.857 16t-16 38.857v36.571q0 22.857-16 38.857t-38.857 16h-182.857q-22.857 0-38.857-16t-16-38.857v-487.429l146.286 180q25.143 30.286 66.286 50t80 19.714zM1090.857 418.857q0-35.429-26.286-68.571l-168.571-207.429q-24.571-30.286-66.286-50t-80-19.714h-621.714q-52.571 0-90.286 37.714t-37.714 90.286v548.571q0 52.571 37.714 90.286t90.286 37.714h182.857q52.571 0 90.286-37.714t37.714-90.286v-18.286h310.857q52.571 0 90.286-37.714t37.714-90.286v-91.429h109.714q30.857 0 56.571-14t38.286-40.286q8.571-18.286 8.571-38.857z" />
<glyph unicode="&#xf118;" glyph-name="smile-o" horiz-adv-x="878" d="M648 336.571q-21.143-69.143-78.857-111.429t-130.286-42.286-130.286 42.286-78.857 111.429q-4.571 14.286 2.286 27.714t21.714 18q14.286 4.571 27.714-2.286t18-21.714q14.286-45.714 52.857-74t86.571-28.286 86.571 28.286 52.857 74q4.571 14.857 18.286 21.714t28 2.286 21.143-18 2.286-27.714zM365.714 585.143q0-30.286-21.429-51.714t-51.714-21.429-51.714 21.429-21.429 51.714 21.429 51.714 51.714 21.429 51.714-21.429 21.429-51.714zM658.286 585.143q0-30.286-21.429-51.714t-51.714-21.429-51.714 21.429-21.429 51.714 21.429 51.714 51.714 21.429 51.714-21.429 21.429-51.714zM804.571 438.857q0 74.286-29.143 142t-78 116.571-116.571 78-142 29.143-142-29.143-116.571-78-78-116.571-29.143-142 29.143-142 78-116.571 116.571-78 142-29.143 142 29.143 116.571 78 78 116.571 29.143 142zM877.714 438.857q0-119.429-58.857-220.286t-159.714-159.714-220.286-58.857-220.286 58.857-159.714 159.714-58.857 220.286 58.857 220.286 159.714 159.714 220.286 58.857 220.286-58.857 159.714-159.714 58.857-220.286z" />
<glyph unicode="&#xf119;" glyph-name="frown-o" horiz-adv-x="878" d="M648 248.571q4.571-14.286-2.286-27.714t-21.143-18-28 2.286-18.286 21.714q-14.286 45.714-52.857 74t-86.571 28.286-86.571-28.286-52.857-74q-4.571-14.857-18-21.714t-27.714-2.286q-14.857 4.571-21.714 18t-2.286 27.714q21.143 69.143 78.857 111.429t130.286 42.286 130.286-42.286 78.857-111.429zM365.714 585.143q0-30.286-21.429-51.714t-51.714-21.429-51.714 21.429-21.429 51.714 21.429 51.714 51.714 21.429 51.714-21.429 21.429-51.714zM658.286 585.143q0-30.286-21.429-51.714t-51.714-21.429-51.714 21.429-21.429 51.714 21.429 51.714 51.714 21.429 51.714-21.429 21.429-51.714zM804.571 438.857q0 74.286-29.143 142t-78 116.571-116.571 78-142 29.143-142-29.143-116.571-78-78-116.571-29.143-142 29.143-142 78-116.571 116.571-78 142-29.143 142 29.143 116.571 78 78 116.571 29.143 142zM877.714 438.857q0-119.429-58.857-220.286t-159.714-159.714-220.286-58.857-220.286 58.857-159.714 159.714-58.857 220.286 58.857 220.286 159.714 159.714 220.286 58.857 220.286-58.857 159.714-159.714 58.857-220.286z" />
<glyph unicode="&#xf11a;" glyph-name="meh-o" horiz-adv-x="878" d="M658.286 329.143q0-14.857-10.857-25.714t-25.714-10.857h-365.714q-14.857 0-25.714 10.857t-10.857 25.714 10.857 25.714 25.714 10.857h365.714q14.857 0 25.714-10.857t10.857-25.714zM365.714 585.143q0-30.286-21.429-51.714t-51.714-21.429-51.714 21.429-21.429 51.714 21.429 51.714 51.714 21.429 51.714-21.429 21.429-51.714zM658.286 585.143q0-30.286-21.429-51.714t-51.714-21.429-51.714 21.429-21.429 51.714 21.429 51.714 51.714 21.429 51.714-21.429 21.429-51.714zM804.571 438.857q0 74.286-29.143 142t-78 116.571-116.571 78-142 29.143-142-29.143-116.571-78-78-116.571-29.143-142 29.143-142 78-116.571 116.571-78 142-29.143 142 29.143 116.571 78 78 116.571 29.143 142zM877.714 438.857q0-119.429-58.857-220.286t-159.714-159.714-220.286-58.857-220.286 58.857-159.714 159.714-58.857 220.286 58.857 220.286 159.714 159.714 220.286 58.857 220.286-58.857 159.714-159.714 58.857-220.286z" />
<glyph unicode="&#xf11d;" glyph-name="flag-o" horiz-adv-x="1061" d="M950.857 353.714v352q-96.571-52-174.857-52-46.857 0-82.857 18.286-57.143 28-105.143 43.714t-101.714 15.714q-98.857 0-230.286-72.571v-342.286q140 64.571 247.429 64.571 31.429 0 59.143-4.286t56-14.857 44-17.714 47.143-22.571l16-8q25.143-12.571 57.714-12.571 68.571 0 167.429 52.571zM182.857 804.571q0-20-10-36.571t-26.571-26.286v-723.429q0-8-5.143-13.143t-13.143-5.143h-36.571q-8 0-13.143 5.143t-5.143 13.143v723.429q-16.571 9.714-26.571 26.286t-10 36.571q0 30.286 21.429 51.714t51.714 21.429 51.714-21.429 21.429-51.714zM1024 768v-436q0-22.286-20-32.571-5.714-2.857-9.714-5.143-124.571-66.286-210.857-66.286-50.286 0-90.286 20l-16 8q-36.571 18.857-56.571 27.429t-52 16.571-65.143 8q-58.286 0-134.571-25.143t-130.571-58.286q-8.571-5.143-18.857-5.143-9.143 0-18.286 4.571-18.286 10.857-18.286 32v424q0 20 17.714 31.429 20 12 44.857 24.286t65.143 29.714 87.143 28.286 88.571 10.857q64 0 119.429-17.714t119.429-49.143q21.714-10.857 50.857-10.857 69.714 0 177.143 64 12.571 6.857 17.714 9.714 17.714 9.143 35.429-1.143 17.714-11.429 17.714-31.429z" />
<glyph unicode="&#xf11e;" glyph-name="flag-checkered" horiz-adv-x="1061" d="M475.429 379.428v109.714q-103.429-9.143-219.429-66.857v-105.714q117.143 54.857 219.429 62.857zM475.429 618.286v112.571q-98.286-4.571-219.429-72v-108q122.857 63.429 219.429 67.429zM950.857 353.714v105.143q-134.286-66.286-219.429-40.571v128q-11.429 3.429-22.286 8.571-2.857 1.714-18.857 9.714t-19.714 9.714-18 8.571-19.714 8.857-18.571 7.429-20.571 7.143-20 4.857-22.571 4.286-22.571 2.286-25.143 1.143q-13.143 0-28-1.714v-126.857h10.857q58.286 0 110-16.571t112.857-46.857q10.857-5.143 22.286-8.571v-107.429q24-9.714 52-9.714 68.571 0 167.429 52.571zM950.857 597.714v108q-96.571-52-174.857-52-25.714 0-44.571 4.571v-112q84.571-24 219.429 51.429zM182.857 804.571q0-20-10-36.571t-26.571-26.286v-723.429q0-8-5.143-13.143t-13.143-5.143h-36.571q-8 0-13.143 5.143t-5.143 13.143v723.429q-16.571 9.714-26.571 26.286t-10 36.571q0 30.286 21.429 51.714t51.714 21.429 51.714-21.429 21.429-51.714zM1024 768v-436q0-22.286-20-32.571-5.714-2.857-9.714-5.143-124.571-66.286-210.857-66.286-50.286 0-90.286 20l-16 8q-36.571 18.857-56.571 27.429t-52 16.571-65.143 8q-58.286 0-134.571-25.143t-130.571-58.286q-8.571-5.143-18.857-5.143-9.143 0-18.286 4.571-18.286 10.857-18.286 32v424q0 20 17.714 31.429 20 12 44.857 24.286t65.143 29.714 87.143 28.286 88.571 10.857q64 0 119.429-17.714t119.429-49.143q21.714-10.857 50.857-10.857 69.714 0 177.143 64 12.571 6.857 17.714 9.714 17.714 9.143 35.429-1.143 17.714-11.429 17.714-31.429z" />
</font>
</defs>
</svg>
